.
Авторизация | Регистрация
bitok.xyz
» » Симпсоны / The Simpsons (2019) WEB-DL [H.264 / 1080p-LQ] (сезон 31, серий 1-5 из 20) [UKR,EN] торрент скачать бесплатно


    Симпсоны / The Simpsons (2019) WEB-DL [H.264 / 1080p-LQ] (сезон 31, серий 1-5 из 20) [UKR,EN] торрент скачать бесплатно

    Дата: 9-11-2019, 05:00 | .torrent скачали: 1

    Симпсоны / The Simpsons (2019) WEB-DL [H.264 / 1080p-LQ] (сезон 31, серий 1-5 из 20) [UKR,EN]Производство: США
    Жанр: Приключения, Для взрослых, Комедия
    Режиссер: Мэтт Гроунинг

    Описание

    Симпсоны живут в вымышленном городе Спрингфилд, со своим обществом и историей. Гомер - отец семейства, который дает плохие советы и работает инспектором безопасности на атомной электростанции; Мардж - любящая мать и жена, старается сохранить спокойствие в семье; Барт - 10 летний хулиган; Лиза - философский 8-летний ребенок; и Мэгги - младенец, который общается посредством соски.

    Релиз от: sergiyko
    Продолжительность: 00: 22: 00 серия
    Качество видео: WEB-DL
    Перевод: Отсутствует
    Язык озвучки: украинский, английский
    Субтитры: отсутствуют
    Видео: AVC/H.264, 1920х1080, ~3000 kbps
    Аудио 1: AC3, 2 ch, 192 kbps - украинский
    Аудио 2: AAC, 2 ch, 128 kbps - английский
    General
    Unique ID : 339206321211878729927579395815080414622 (0xFF30C2D9B9ECE9A0FD859A964CF34D9E)
    Complete name : D: DocumentsTorrentsMULTSERThe Simpsons S31 1080p WEB-DLThe Simpsons.S31E01.The Winter of Our Monetized Content.1080p.WEB-DL.mkv
    Format : Matroska
    Format version : Version 4
    File size : 728 MiB
    Duration : 21 min 38 s
    Overall bit rate : 4 705 kb/s
    Movie name : The Simpsons S31 1080p WEB-DL by sergiyko
    Encoded date : UTC 2019-11-08 12: 22: 52
    Writing application : mkvmerge v39.0.0 (\'In The Waiting Line\') 64-bit
    Writing library : libebml v1.3.9 + libmatroska v1.5.2
    Video
    ID : 1
    Format : AVC
    Format/Info : Advanced Video Codec
    Format profile : High@L4
    Format settings : CABAC/2 Ref Frames
    Format settings, CABAC : Yes
    Format settings, Reference : 2 frames
    Codec ID : V_MPEG4/ISO/AVC
    Duration : 21 min 38 s
    Bit rate : 4 384 kb/s
    Nominal bit rate : 4 920 kb/s
    Width : 1 920 pixels
    Height : 1 080 pixels
    Display aspect ratio : 16: 9
    Frame rate mode : Constant
    Frame rate : 23.976 (24000/1001) FPS
    Original frame rate : 24.000 FPS
    Color space : YUV
    Chroma subsampling : 4: 2: 0
    Bit depth : 8 bits
    Scan type : Progressive
    Bits/(Pixel*Frame) : 0.088
    Stream size : 679 MiB (93%)
    Title : S31E01.The Winter of Our Monetized Content
    Writing library : x264 core 148 r2579M 73ae2d1
    Encoding settings : cabac=1/ref=2/deblock=1: 0: 0/analyse=0x3: 0x113/me=hex/subme=2/psy=1/psy_rd=1.00: 0.00/mixed_ref=0/me_range=16/chroma_me=1/trellis=0/8x8dct=1/cqm=0/deadzone=21, 11/fast_pskip=1/chroma_qp_offset=0/threads=1/lookahead_threads=1/sliced_threads=0/nr=250/decimate=1/interlaced=0/bluray_compat=0/stitchable=1/constrained_intra=0/bframes=0/weightp=1/keyint=250/keyint_min=24/scenecut=40/intra_refresh=0/rc_lookahead=10/rc=2pass/mbtree=1/bitrate=4920/ratetol=1.0/qcomp=0.60/qpmin=5/qpmax=69/qpstep=4/cplxblur=20.0/qblur=0.5/ip_ratio=1.40/aq=1: 1.00
    Language : English
    Default : Yes
    Forced : No
    Audio #1
    ID : 2
    Format : AC-3
    Format/Info : Audio Coding 3
    Commercial name : Dolby Digital
    Codec ID : A_AC3
    Duration : 21 min 38 s
    Bit rate mode : Constant
    Bit rate : 192 kb/s
    Channel(s) : 2 channels
    Channel layout : L R
    Sampling rate : 48.0 kHz
    Frame rate : 31.250 FPS (1536 SPF)
    Bit depth : 16 bits
    Compression mode : Lossy
    Stream size : 29.7 MiB (4%)
    Title : DUB AC3 2.0ch
    Language : Ukrainian
    Service kind : Complete Main
    Default : Yes
    Forced : Yes
    Audio #2
    ID : 3
    Format : AAC LC SBR
    Format/Info : Advanced Audio Codec Low Complexity with Spectral Band Replication
    Commercial name : HE-AAC
    Format settings : Implicit
    Codec ID : A_AAC-2
    Duration : 21 min 38 s
    Bit rate : 127 kb/s
    Channel(s) : 2 channels
    Channel layout : L R
    Sampling rate : 48.0 kHz
    Frame rate : 23.438 FPS (2048 SPF)
    Compression mode : Lossy
    Stream size : 19.6 MiB (3%)
    Title : Original
    Language : English
    Default : No
    Forced : No


    Онлайн видео Симпсоны



    Симпсоны/The Simpsons (2019) WEB-DL [H.264/1080p-LQ] (сезон 31, серий 1-5 из 20) [UKR,EN]
    Рейтинг →
     (голосов: 1, оценка 3/5, голосовать можно 1 раз )

    Другие торренты по теме:

  • Симпсоны / The Simpsons (2014-2015) WEB-DLRip (Сезон 26, Серии 1-14 из 16) [VO-production] (Обновляемая) скачать через торрент бесплатно
  • Симпсоны / The Simpsons (2014) WEB-DL [H.264 / 720p-LQ] (сезон 26, серии 1-14 из 22) [OmskBird] (обновляемая) скачать через торрент бесплатно
  • Discovery: Разрушители легенд. Спецвыпуск Симпсоны / MythBusters. The Simpsons Special (2015) WEB-DL [H.264 / 720p-LQ] (Сезон 15, эпизод 01) Jetvis Studio скачать через торрент бесплатно
  • Discovery: Разрушители легенд. Спецвыпуск Симпсоны / MythBusters. The Simpsons Special (2015) WEB-DLRip (Сезон 15, эпизод 01) Jetvis Studio скачать через торрент бесплатно
  • Симпсоны / The Simpsons (2015) WEB-DL (27 сезон, 1 серия) [JetvisStudio] скачать через торрент бесплатно
  • Discovery: Разрушители легенд. Спецвыпуск Симпсоны / MythBusters. The Simpsons Special (2015) SATRip (Сезон 15, эпизод 01) [Discovery] скачать через торрент бесплатно
  • Симпсоны / The Simpsons (2015) WEB-DL [H.264 / 720p] (27 сезон, 1 серия из 22) [VO-Production] (Обновляемая) скачать через торрент бесплатно
  • Симпсоны / The Simpsons (2015) WEB-DLRip (сезон 27, серия 01 из 22) VO-production скачать через торрент бесплатно


    • Комментарии (0):

      Информация

      Информация

        Посетители, находящиеся в группе Гости, не могут оставлять комментарии в данной новости.

        ↓ Меню




        ↓ Опрос

        Вы добавили сайт в закладки?
        Да
        Нет


        Популярное