.
Авторизация | Регистрация
bitok.xyz
» » Король Лев / The Lion King (2019) BDRip 3D [H.264 / 1080p-LQ] [вертикальная анаморфная стереопара] торрент скачать бесплатно


    Король Лев / The Lion King (2019) BDRip 3D [H.264 / 1080p-LQ] [вертикальная анаморфная стереопара] торрент скачать бесплатно

    Дата: 9-11-2019, 05:00 | .torrent скачали: 1

    Король Лев / The Lion King (2019) BDRip 3D [H.264 / 1080p-LQ] [вертикальная анаморфная стереопара]Производство: США/Fairview Entertainment, Walt Disney Pictures
    Жанр: Музыкальный, Приключения, Компьютерная анимация
    Режиссер: Джон Фавро

    Актеры
    Джеймс Эрл Джонс, Дональд Гловер, Чиветел Эджиофор, Джон Оливер, Джон Кани, Элфри Вудард, Джейдон Маккрэри, Шахади Райт Джозеф, Пенни Джонсон, Кигэн-Майкл Ки

    Описание

    История об отважном львенке по имени Симба. Знакомые с детства герои взрослеют, влюбляются, познают себя и окружающий мир, совершают ошибки и делают правильный выбор.

    Возраст: 6+ (зрителям, достигшим 6 лет)
    Рейтинг MPAA: PG (рекомендуется присутствие родителей)
    Дата мировой премьеры: 9 июля 2019
    Дата российской премьеры: 18 июля 2019, WDSSPR
    Релиз от: SergeyAms
    Продолжительность: 01: 58: 15
    Качество видео: BDRip 3D
    Перевод: Дублированный
    Субтитры: русские (полные), английские (полные)
    Видео: AVC/H.264, 1920x1080, ~6 Mbps
    Аудио #1: AC3, 6 ch, 384 kbps - русский
    Аудио #2: DTS, 6 ch, 768 kbps - английский
    Unique ID : 172393196922663658541323662328233385154 (0x81B1B8D60DBFA68DBB6D00A5B21ADCC2)
    Complete name : D: TempNNMTHE.LION.KING.2019.1080p.mkv
    Format : Matroska
    Format version : Version 4/Version 2
    File size : 5.91 GiB
    Duration : 1h 58mn
    Overall bit rate : 7 154 Kbps
    Movie name : THE.LION.KING.Title0
    Encoded date : UTC 2019-11-08 00: 03: 21
    Writing application : mkvmerge v9.8.0 (\'Kuglblids\') 64bit
    Writing library : libebml v1.3.4 + libmatroska v1.4.5
    Video
    ID : 1
    Format : AVC
    Format/Info : Advanced Video Codec
    Format profile : High@L4.1
    Format settings, CABAC : Yes
    Format settings, ReFrames : 4 frames
    Codec ID : V_MPEG4/ISO/AVC
    Duration : 1h 58mn
    Bit rate : 6 000 Kbps
    Width : 1 920 pixels
    Height : 1 080 pixels
    Display aspect ratio : 16: 9
    Frame rate mode : Constant
    Frame rate : 23.976 fps
    Color space : YUV
    Chroma subsampling : 4: 2: 0
    Bit depth : 8 bits
    Scan type : Progressive
    Bits/(Pixel*Frame) : 0.121
    Stream size : 4.84 GiB (82%)
    Writing library : x264 core 157 r2935 545de2f
    Encoding settings : cabac=1/ref=4/deblock=1: -3: -3/analyse=0x3: 0x113/me=umh/subme=9/psy=1/psy_rd=1.05: 0.10/mixed_ref=1/me_range=24/chroma_me=1/trellis=2/8x8dct=1/cqm=0/deadzone=21, 11/fast_pskip=0/chroma_qp_offset=-3/threads=5/lookahead_threads=1/sliced_threads=0/nr=0/decimate=0/interlaced=0/bluray_compat=0/constrained_intra=0/bframes=6/b_pyramid=2/b_adapt=2/b_bias=0/direct=1/weightb=1/open_gop=0/weightp=2/keyint=240/keyint_min=24/scenecut=40/intra_refresh=0/rc=2pass/mbtree=0/bitrate=6000/ratetol=1.0/qcomp=0.70/qpmin=3/qpmax=69/qpstep=4/cplxblur=20.0/qblur=0.5/ip_ratio=1.40/pb_ratio=1.30/aq=2: 1.00
    Default : Yes
    Forced : No
    Audio #1
    ID : 2
    Format : AC-3
    Format/Info : Audio Coding 3
    Mode extension : CM (complete main)
    Format settings, Endianness : Big
    Codec ID : A_AC3
    Duration : 1h 58mn
    Bit rate mode : Constant
    Bit rate : 384 Kbps
    Channel(s) : 6 channels
    Channel positions : Front: L C R, Side: L R, LFE
    Sampling rate : 48.0 KHz
    Bit depth : 16 bits
    Compression mode : Lossy
    Stream size : 325 MiB (5%)
    Language : Russian
    Default : Yes
    Forced : No
    Audio #2
    ID : 3
    Format : DTS
    Format/Info : Digital Theater Systems
    Mode : 16
    Format settings, Endianness : Big
    Codec ID : A_DTS
    Duration : 1h 58mn
    Bit rate mode : Constant
    Bit rate : 768 Kbps
    Channel(s) : 6 channels
    Channel positions : Front: L C R, Side: L R, LFE
    Sampling rate : 48.0 KHz
    Bit depth : 16 bits
    Compression mode : Lossy
    Stream size : 650 MiB (11%)
    Language : English
    Default : No
    Forced : No
    Text #1
    ID : 4
    Format : UTF-8
    Codec ID : S_TEXT/UTF8
    Codec ID/Info : UTF-8 Plain Text
    Title : Full
    Language : Russian
    Default : No
    Forced : No
    Text #2
    ID : 5
    Format : UTF-8
    Codec ID : S_TEXT/UTF8
    Codec ID/Info : UTF-8 Plain Text
    Title : Full
    Language : English
    Default : No
    Forced : No
    00: 00: 00.000 : en: Circle Of Life/Nants\' Ingonyama
    00: 04: 50.499 : en: Life\'s Not Fair
    00: 10: 51.067 : en: Everything The Light Touches
    00: 17: 47.692 : en: I Just Can\'t Wait To Be King
    00: 23: 53.015 : en: Elephant Graveyard
    00: 30: 00.132 : en: Under The Stars
    00: 33: 05.066 : en: Be Prepared
    00: 37: 09.310 : en: Stampede
    00: 43: 42.912 : en: Scar Takes Over
    00: 50: 47.336 : en: Timon And Pumbaa
    00: 55: 02.716 : en: Hakuna Matata
    00: 59: 48.460 : en: Scar\'s Kingdom
    01: 06: 27.233 : en: Line Of Indifference
    01: 14: 32.093 : en: The Lion Sleeps Tonight
    01: 18: 26.410 : en: Can You Feel The Love Tonight
    01: 23: 07.900 : en: He Lives In You
    01: 28: 04.654 : en: Spirit
    01: 33: 10.877 : en: Simba Confronts Scar
    01: 37: 13.745 : en: Battle For Pride Rock
    01: 44: 39.190 : en: The Rightful King
    01: 47: 47.336 : en: End Credits/Never Too Late

    Скриншоты для ознакомления



    Все одноименные релизы в Клубе
    Время раздачи: 24/7 (до появления первых 3-5 скачавших)

    Онлайн видео Король Лев



    Король Лев/The Lion King (2019) BDRip 3D [H.264/1080p-LQ] [вертикальная анаморфная стереопара]
    Рейтинг →
     (голосов: 1, оценка 4/5, голосовать можно 1 раз )

    Другие торренты по теме:

  • Король Лев / The Lion King (1994) BDRip [1080p] 3D [Вертикальная анаморфная стереопара]
  • Король Лев / The Lion King (1994) BDRip [H.265 / 1080p]
  • Лев Лео, король джунглей / Leo the Lion: King of the Jungle (1994) DVDRip
  • Король Лев / The Lion King (1994) BDRip [H.264 / 1080p-LQ]
  • Король Лев / The Lion King (1994-2004) Blu-Ray [1080p] [Трилогия]
  • Король Лев / The Lion King (1994) UHD BDRemux [H.265 / 2160p] [4K, HDR, 10-bit]
  • Король Лев / The Lion King (1994) BDRip [H.264] [MP4|1280x720] [VO]
  • Король Лев / The Lion King (1994-2004) BDRemux [H.264 / 1080p] (Трилогия)


    • Комментарии (0):

      Информация

      Информация

        Посетители, находящиеся в группе Гости, не могут оставлять комментарии в данной новости.

        ↓ Меню




        ↓ Опрос

        Вы добавили сайт в закладки?
        Да
        Нет


        Популярное