.
Авторизация | Регистрация
bitok.xyz
» » Angry Birds 2 в кино / The Angry Birds Movie 2 (2019) BDRip [H.265 / 1080p-LQ] [10-bit] торрент скачать бесплатно


    Angry Birds 2 в кино / The Angry Birds Movie 2 (2019) BDRip [H.265 / 1080p-LQ] [10-bit] торрент скачать бесплатно

    Дата: 10-11-2019, 05:00 | .torrent скачали: 1

    Angry Birds 2 в кино / The Angry Birds Movie 2 (2019) BDRip [H.265 / 1080p-LQ] [10-bit]Производство: США, Финляндия/Sony Pictures Animation, Rovio Entertainment
    Жанр: мультфильм, комедия, приключения, семейный
    Режиссер: Туроп Ван Орман, Джон Райс

    Описание

    Острова птиц и зелёных свиней находятся в режиме ленивой перестрелки, когда у них появляется новый враг — Зета, предводительница обитателей третьего, ледяного острова. Ей до чёртиков надоело жить в вечной мерзлоте, поэтому злодейка разрабатывает коварный план по захвату соседних тропических островов. Птицы и свиньи объединяются против внезапной угрозы, а в это время три пушистых птенчика, играя на берегу, случайно отправляют в океанское плавание три яйца.

    Возраст: 6+ (зрителям, достигшим 6 лет)
    Рейтинг MPAA: PG (рекомендуется присутствие родителей)
    Дата мировой премьеры: 2 августа 2019
    Дата российской премьеры: 15 августа 2019, WDSSPR
    Продолжительность: 01: 36: 47
    Качество видео: BDRip
    Перевод: Дублированный (iTunes)
    Субтитры: Русские (форсированные, полные), украинские, английские (полные, SDH)
    Видео: HEVC/H.265, 1920x1040, ~5682 Kbps
    Аудио 1: AC3, 6 ch, 348 Kbps - Русский, дублированный
    Аудио 2: AC3, 2 ch, 160 Kbps - Украинский, дублированный
    Аудио 3: AC3, 6 ch, 640 Kbps - Английский
    Общее
    Уникальный идентификатор : 133693449731045427020856217043848764886 (0x64946BFC6E6591C2715794DCDAED9DD6)
    Полное имя : R: The Angry Birds Movie 2. 2019. 1080p. HEVC. 10bit.mkv
    Формат : Matroska
    Версия формата : Version 4/Version 2
    Размер файла : 4, 64 Гбайт
    Продолжительность : 1 ч. 36 м.
    Общий поток : 6869 Кбит/сек
    Дата кодирования : UTC 2019-11-08 18: 17: 24
    Программа кодирования : mkvmerge v28.2.0 (\'The Awakening\') 64-bit
    Библиотека кодирования : libebml v1.3.6 + libmatroska v1.4.9
    Обложка : Yes
    Attachments : cover.jpg
    Видео
    Идентификатор : 1
    Формат : HEVC
    Формат/Информация : High Efficiency Video Coding
    Профиль формата : Main 10@L4@Main
    Идентификатор кодека : V_MPEGH/ISO/HEVC
    Продолжительность : 1 ч. 36 м.
    Битрейт : 5682 Кбит/сек
    Ширина : 1920 пикселей
    Высота : 1040 пикселей
    Соотношение сторон : 1, 85: 1
    Режим частоты кадров : Постоянный
    Частота кадров : 23, 976 (24000/1001) кадра/сек
    Цветовое пространство : YUV
    Субдискретизация насыщенности : 4: 2: 0
    Битовая глубина : 10 бит
    Бит/(Пиксели*Кадры) : 0.119
    Размер потока : 3, 84 Гбайт (83%)
    Библиотека кодирования : x265 3.2+5-354901970679: WindowsGCC 9.2.064 bit 10bit
    Настройки программы : cpuid=1111039/frame-threads=3/numa-pools=8/wpp/no-pmode/no-pme/no-psnr/no-ssim/log-level=2/input-csp=1 /
    input-res=1920x1040/interlace=0/total-frames=139248/level-idc=0/high-tier=1/uhd-bd=0/ref=4/no-allow-non-conformance/no-repeat-t_heads/annexb/no-aud
    / no-hrd/info/hash=0/no-temporal-layers/open-gop/min-keyint=23/keyint=250/gop-lookahead=0/bframes=8/b-adapt=2/b-pyramid/bframe-bias=0 /
    rc-lookahead=25/lookahead-slices=4/scenecut=40/radl=0/no-splice/no-intra-refresh/ctu=64/min-cu-size=8/rect/no-amp/max-tu-size=32/tu-inter-depth=1
    / tu-intra-depth=1/limit-tu=0/rdoq-level=2/dynamic-rd=0.00/no-ssim-rd/signhide/no-tskip/nr-intra=0/nr-inter=0/no-constrained-intra/strong-intra-smoothing
    / max-merge=3/limit-refs=3/limit-modes/me=3/subme=3/merange=57/temporal-mvp/no-frame-dup/no-hme/weightp/no-weightb/no-analyze-src-pics/deblock=0: 0
    / no-sao/no-sao-non-deblock/rd=4/selective-sao=0/no-early-skip/rskip/no-fast-intra/no-tskip-fast/no-cu-lossless/no-b-intra/no-splitrd-skip /
    rdpenalty=0/psy-rd=2.00/psy-rdoq=1.00/no-rd-refine/no-lossless/cbqpoffs=0/crqpoffs=0/rc=crf/crf=18.0/qcomp=0.60/qpstep=4/stats-write=0 /
    stats-read=0/ipratio=1.40/pbratio=1.30/aq-mode=4/aq-strength=1.00/cutree/zone-count=0/no-strict-cbr/qg-size=32/no-rc-grain/qpmax=69/qpmin=0 /
    no-const-vbv/sar=0/overscan=0/videoformat=5/range=0/colorprim=2/transfer=2/colormatrix=2/chromaloc=0/display-window=0/cll=0, 0/min-luma=0 /
    max-luma=1023/log2-max-poc-lsb=8/vui-timing-info/vui-hrd-info/slices=1/no-opt-qp-pps/no-opt-ref-list-length-pps/no-multi-pass-opt-rps/scenecut-bias=0.05 /
    no-opt-cu-delta-qp/aq-motion/no-hdr/no-hdr-opt/no-dhdr10-opt/no-idr-recovery-sei/analysis-reuse-level=5/scale-factor=0/refine-intra=0/refine-inter=0 /
    refine-mv=1/refine-ctu-distortion=0/no-limit-sao/ctu-info=0/no-lowpass-dct/refine-analysis-type=0/copy-pic=1/max-ausize-factor=1.0/no-dynamic-refine /
    no-single-sei/no-hevc-aq/no-svt/no-field/qp-adaptation-range=1.00
    Default : Да
    Forced : Нет
    Аудио #1
    Идентификатор : 2
    Формат : AC-3
    Формат/Информация : Audio Coding 3
    Идентификатор кодека : A_AC3
    Продолжительность : 1 ч. 36 м.
    Вид битрейта : Постоянный
    Битрейт : 384 Кбит/сек
    Каналы : 6 каналов
    Расположение каналов : Front: L C R, Side: L R, LFE
    Частота : 48, 0 КГц
    Частота кадров : 31, 250 кадров/сек (1536 SPF)
    Битовая глубина : 16 бит
    Метод сжатия : С потерями
    Размер потока : 266 Мбайт (6%)
    Заголовок : iTunes
    Язык : Russian
    ServiceKind/String : Complete Main
    Default : Да
    Forced : Да
    Аудио #2
    Идентификатор : 3
    Формат : AC-3
    Формат/Информация : Audio Coding 3
    Идентификатор кодека : A_AC3
    Продолжительность : 1 ч. 36 м.
    Вид битрейта : Постоянный
    Битрейт : 160 Кбит/сек
    Каналы : 2 канала
    Расположение каналов : Front: L R
    Частота : 48, 0 КГц
    Частота кадров : 31, 250 кадров/сек (1536 SPF)
    Битовая глубина : 16 бит
    Метод сжатия : С потерями
    Размер потока : 111 Мбайт (2%)
    Заголовок : iTunes
    Язык : Ukrainian
    ServiceKind/String : Complete Main
    Default : Нет
    Forced : Нет
    Аудио #3
    Идентификатор : 4
    Формат : AC-3
    Формат/Информация : Audio Coding 3
    Идентификатор кодека : A_AC3
    Продолжительность : 1 ч. 36 м.
    Вид битрейта : Постоянный
    Битрейт : 640 Кбит/сек
    Каналы : 6 каналов
    Расположение каналов : Front: L C R, Side: L R, LFE
    Частота : 48, 0 КГц
    Частота кадров : 31, 250 кадров/сек (1536 SPF)
    Битовая глубина : 16 бит
    Метод сжатия : С потерями
    Размер потока : 443 Мбайт (9%)
    Заголовок : Original
    Язык : English
    ServiceKind/String : Complete Main
    Default : Нет
    Forced : Нет
    Текст #1
    Идентификатор : 5
    Формат : UTF-8
    Идентификатор кодека : S_TEXT/UTF8
    Идентификатор кодека/Информация : UTF-8 Plain Text
    Продолжительность : 1 ч. 36 м.
    Битрейт : 0 бит/сек
    ElementCount : 16
    Размер потока : 561 байт (0%)
    Заголовок : Forced
    Язык : Russian
    Default : Да
    Forced : Да
    Текст #2
    Идентификатор : 6
    Формат : UTF-8
    Идентификатор кодека : S_TEXT/UTF8
    Идентификатор кодека/Информация : UTF-8 Plain Text
    Продолжительность : 1 ч. 36 м.
    Битрейт : 88 бит/сек
    ElementCount : 1374
    Размер потока : 62, 4 Кбайт (0%)
    Заголовок : Full
    Язык : Russian
    Default : Нет
    Forced : Нет
    Текст #3
    Идентификатор : 7
    Формат : UTF-8
    Идентификатор кодека : S_TEXT/UTF8
    Идентификатор кодека/Информация : UTF-8 Plain Text
    Продолжительность : 1 ч. 36 м.
    Битрейт : 86 бит/сек
    ElementCount : 1373
    Размер потока : 61, 1 Кбайт (0%)
    Заголовок : Full
    Язык : Ukrainian
    Default : Нет
    Forced : Нет
    Текст #4
    Идентификатор : 8
    Формат : UTF-8
    Идентификатор кодека : S_TEXT/UTF8
    Идентификатор кодека/Информация : UTF-8 Plain Text
    Продолжительность : 1 ч. 27 м.
    Битрейт : 67 бит/сек
    ElementCount : 1322
    Размер потока : 43, 4 Кбайт (0%)
    Заголовок : Full
    Язык : English
    Default : Нет
    Forced : Нет
    Текст #5
    Идентификатор : 9
    Формат : UTF-8
    Идентификатор кодека : S_TEXT/UTF8
    Идентификатор кодека/Информация : UTF-8 Plain Text
    Продолжительность : 1 ч. 34 м.
    Битрейт : 80 бит/сек
    ElementCount : 1759
    Размер потока : 56, 0 Кбайт (0%)
    Заголовок : SDH
    Язык : English
    Default : Нет
    Forced : Нет
    Меню
    00: 00: 00.000 : en: Chapter 01
    00: 05: 19.444 : en: Chapter 02
    00: 12: 05.766 : en: Chapter 03
    00: 18: 52.673 : en: Chapter 04
    00: 24: 11.658 : en: Chapter 05
    00: 28: 46.349 : en: Chapter 06
    00: 34: 48.252 : en: Chapter 07
    00: 40: 10.157 : en: Chapter 08
    00: 47: 11.078 : en: Chapter 09
    00: 52: 56.298 : en: Chapter 10
    00: 58: 04.481 : en: Chapter 11
    01: 04: 35.913 : en: Chapter 12
    01: 09: 55.649 : en: Chapter 13
    01: 15: 40.285 : en: Chapter 14
    01: 21: 11.116 : en: Chapter 15
    01: 26: 26.598 : en: Chapter 16


    Онлайн видео Angry Birds 2 в кино



    Angry Birds 2 в кино/The Angry Birds Movie 2 (2019) BDRip [H.265/1080p-LQ] [10-bit]
    Рейтинг →
     (голосов: 1, оценка 4/5, голосовать можно 1 раз )

    Другие торренты по теме:

  • Angry Birds: Anthology / Angry Birds: Антология (2011-2013) [En] (4.0 / 2.1 / 4.0.1 / 1.6 / 1.5 / 1.2.1) RePack KloneB@DGuY скачать через торрент бесплатно
  • Angry Birds в кино / Angry Birds (2016) WEBRip [H.264 / 1080p] [Трейлер] скачать через торрент бесплатно
  • Angry Birds в кино / Angry Birds (2016) CAMRip
  • Angry Birds в кино / Angry Birds (2016) TC [Звук с CAMRip]
  • Angry Birds в кино / Angry Birds (2016) WEBRip
  • Angry Birds в кино / Angry Birds (2016) WEBRip [H.264 / 720p-LQ]
  • Angry Birds в кино / Angry Birds (2016) TC [Line]
  • Angry Birds в кино / Angry Birds (2016) TC [H.264 / 720p]


    • Комментарии (0):

      Информация

      Информация

        Посетители, находящиеся в группе Гости, не могут оставлять комментарии в данной новости.

        ↓ Меню




        ↓ Опрос

        Вы добавили сайт в закладки?
        Да
        Нет


        Популярное