.
Авторизация | Регистрация
bitok.xyz
» » Angry Birds 2 в кино / The Angry Birds Movie 2 (2019) BDRip [H.265 / 1080p] [10-bit] торрент скачать бесплатно


    Angry Birds 2 в кино / The Angry Birds Movie 2 (2019) BDRip [H.265 / 1080p] [10-bit] торрент скачать бесплатно

    Дата: 10-11-2019, 05:00 | .torrent скачали: 4

    Angry Birds 2 в кино / The Angry Birds Movie 2 (2019) BDRip [H.265 / 1080p] [10-bit]Производство: США, Финляндия/Rovio Animation, Sony Pictures Animation
    Жанр: Детский, Комедия, Для взрослых
    Режиссер: Туроп Ван Орман, Джон Райс

    Описание

    Птицы узнали о существовании голодных зелёных свиней, после чего началась священная война, которая длилась многие годы. Однако теперь на горизонте появился новый враг - Зета, обитательница третьего, замёрзшего острова. Она считает, что все должны почувствовать на себе силу холода, и начинает атаку на дальних родственников, обитающих в тёплых краях. Теперь птицы и свиньи должны объединиться, чтобы остановить заморозки.

    Возраст: 6+ (зрителям, достигшим 6 лет)
    Рейтинг MPAA: PG (рекомендуется присутствие родителей)
    Релиз от: xdemon
    Продолжительность: 01: 36: 47
    Качество видео: BDRip
    Перевод: Дублированный (iTunes)
    Язык озвучки Русский
    Субтитры: Отсутствуют
    Видео: HEVC/H.265, 1920x1036, ~4 468 384 Kbps
    Аудио: AC3, 6 ch, 384 Kbps
    General
    Unique ID : 313920020801568617201722917845902284502 (0xEC2ACBFC6CA4B7F2003AC1837BEFD6D6)
    Complete name : /mnt/5d73b413-b631-4fe6-8303-b24a1a83b807/The.Angry.Birds.Movie.2.2019.BDRip-HEVC 1080p.xdemon.mkv
    Format : Matroska
    Format version : Version 4/Version 2
    File size : 3.28 GiB
    Duration : 1 h 36 min
    Overall bit rate : 4 854 kb/s
    Movie name : The Angry Birds Movie 2 2019
    Encoded date : UTC 2019-11-04 10: 28: 52
    Writing application : mkvmerge v38.0.0 (\'The Silent Type\') 64-bit
    Writing library : libebml v1.3.9 + libmatroska v1.5.2/Lavf58.20.100
    Video
    ID : 1
    Format : HEVC
    Format/Info : High Efficiency Video Coding
    Format profile : Main 10@L4@Main
    Codec ID : V_MPEGH/ISO/HEVC
    Duration : 1 h 36 min
    Bit rate : 4 468 kb/s
    Width : 1 920 pixels
    Height : 1 036 pixels
    Display aspect ratio : 1.85: 1
    Frame rate mode : Constant
    Frame rate : 23.976 (24000/1001) FPS
    Color space : YUV
    Chroma subsampling : 4: 2: 0
    Bit depth : 10 bits
    Bits/(Pixel*Frame) : 0.094
    Stream size : 3.02 GiB (92%)
    Writing library : x265 2.9: LinuxGCC 7.3.064 bit 10bit
    Encoding settings : cpuid=1310959/frame-threads=2/wpp/no-pmode/no-pme/no-psnr/no-ssim/log-level=2/input-csp=1/input-res=1920x1036/interlace=0/total-frames=0/level-idc=0/high-tier=1/uhd-bd=0/ref=3/no-allow-non-conformance/no-repeat-t_heads/annexb/no-aud/no-hrd/info/hash=0/no-temporal-layers/open-gop/min-keyint=24/keyint=240/gop-lookahead=0/bframes=4/b-adapt=2/b-pyramid/bframe-bias=0/rc-lookahead=20/lookahead-slices=6/scenecut=40/radl=0/no-intra-refresh/ctu=64/min-cu-size=8/no-rect/no-amp/max-tu-size=32/tu-inter-depth=1/tu-intra-depth=1/limit-tu=0/rdoq-level=0/dynamic-rd=0, 00/no-ssim-rd/signhide/no-tskip/nr-intra=0/nr-inter=0/no-constrained-intra/strong-intra-smoothing/max-merge=2/limit-refs=3/no-limit-modes/me=1/subme=7/merange=57/temporal-mvp/weightp/no-weightb/no-analyze-src-pics/deblock=0: 0/sao/no-sao-non-deblock/rd=3/no-early-skip/rskip/no-fast-intra/no-tskip-fast/no-cu-lossless/no-b-intra/no-splitrd-skip/rdpenalty=0/psy-rd=2, 00/psy-rdoq=0, 00/no-rd-refine/no-lossless/cbqpoffs=0/crqpoffs=0/rc=crf/crf=18, 0/qcomp=0, 60/qpstep=4/stats-write=0/stats-read=0/ipratio=1, 40/pbratio=1, 30/aq-mode=1/aq-strength=1, 00/cutree/zone-count=0/no-strict-cbr/qg-size=32/no-rc-grain/qpmax=69/qpmin=0/no-const-vbv/sar=1/overscan=0/videoformat=5/range=0/colorprim=1/transfer=1/colormatrix=1/chromaloc=0/display-window=0/max-cll=0, 0/min-luma=0/max-luma=1023/log2-max-poc-lsb=8/vui-timing-info/vui-hrd-info/slices=1/no-opt-qp-pps/no-opt-ref-list-length-pps/no-multi-pass-opt-rps/scenecut-bias=0, 05/no-opt-cu-delta-qp/no-aq-motion/no-hdr/no-hdr-opt/no-dhdr10-opt/no-idr-recovery-sei/analysis-reuse-level=5/scale-factor=0/refine-intra=0/refine-inter=0/refine-mv=0/no-limit-sao/ctu-info=0/no-lowpass-dct/refine-mv-type=0/copy-pic=1/max-ausize-factor=1, 0/no-dynamic-refine/no-single-sei
    Default : Yes
    Forced : No
    Color range : Limited
    Color primaries : BT.709
    Transfer characteristics : BT.709
    Matrix coefficients : BT.709
    Audio
    ID : 2
    Format : AC-3
    Format/Info : Audio Coding 3
    Codec ID : A_AC3
    Duration : 1 h 36 min
    Bit rate mode : Constant
    Bit rate : 384 kb/s
    Channel(s) : 6 channels
    Channel positions : Front: L C R, Side: L R, LFE
    Sampling rate : 48.0 kHz
    Frame rate : 31.250 FPS (1536 SPF)
    Bit depth : 16 bits
    Compression mode : Lossy
    Stream size : 266 MiB (8%)
    Title : iTunes
    Language : Russian
    Service kind : Complete Main
    Default : Yes
    Forced : Yes

    Скриншоты для ознакомления



    Все одноименные релизы в Клубе
    Время раздачи: 24/7 (до появления первых 3-5 скачавших)

    Онлайн видео Angry Birds 2 в кино



    Angry Birds 2 в кино/The Angry Birds Movie 2 (2019) BDRip [H.265/1080p] [10-bit]
    Рейтинг →
     (голосов: 1, оценка 4/5, голосовать можно 1 раз )

    Другие торренты по теме:

  • Angry Birds: Anthology / Angry Birds: Антология (2011-2013) [En] (4.0 / 2.1 / 4.0.1 / 1.6 / 1.5 / 1.2.1) RePack KloneB@DGuY скачать через торрент бесплатно
  • Angry Birds в кино / Angry Birds (2016) WEBRip [H.264 / 1080p] [Трейлер] скачать через торрент бесплатно
  • Angry Birds в кино / Angry Birds (2016) CAMRip
  • Angry Birds в кино / Angry Birds (2016) TC [Звук с CAMRip]
  • Angry Birds в кино / Angry Birds (2016) WEBRip
  • Angry Birds в кино / Angry Birds (2016) WEBRip [H.264 / 720p-LQ]
  • Angry Birds в кино / Angry Birds (2016) TC [Line]
  • Angry Birds в кино / Angry Birds (2016) TC [H.264 / 720p]


    • Комментарии (0):

      Информация

      Информация

        Посетители, находящиеся в группе Гости, не могут оставлять комментарии в данной новости.

        ↓ Меню




        ↓ Опрос

        Вы добавили сайт в закладки?
        Да
        Нет


        Популярное

        Футурама / Futurama (1999-2013) DVDRip (7 Сезонов, 140 серии) скачать через торрент бесплатно

        (скачиваний: 70)
        Малышарики (2015-2019) WEB-DL [H.264 / 1080p-LQ] (серии 1-154 из 208) [Обновляемая]

        (скачиваний: 57)
        Жила-была царевна (2015-2019) WEB-DLRip [H.264 / 720p-LQ] (сезон 1, серии 1-18 из 26) [Обновляемая]

        (скачиваний: 34)
        Металионы / Metalions (2018-2019) WEB-DLRip [H.264 / 720p-LQ] (сезон 1, серии 1-52 из 52) [Обновляемая]

        (скачиваний: 32)
        В гостях у сказки (сборник 56 фильмов) (1939-2009) DVDRip

        (скачиваний: 26)
        Три кота (2018) WEB-DLRip [H.264 / 720p-LQ] (сезон 3, серии 105-106 из 156)

        (скачиваний: 25)
        Спокойной ночи, малыши! (2009, 2015) SATRip, TVRip (83 выпусков)

        (скачиваний: 19)
        Рик и Морти / Rick and Morty (2013) BDRip [H.264 / 1080p] (Сезон 1, серии 1-11 из 11) Сыендук [EN Sub] скачать через торрент бесплатно

        (скачиваний: 18)
        Роботы-поезда / Robot Trains (2017) WEB-DL [H.264 / 720p-LQ] (1 сезон, 32 серий из 32)

        (скачиваний: 13)
        Fate / stay night Movie: Heavens Feel - II. Lost Butterfly / Судьба: Ночь схватки. Прикосновение Небес - II. Потерявшаяся бабочка [2019, MV] BDRip 1080p Rus

        (скачиваний: 12)