.
Авторизация | Регистрация
bitok.xyz
» » Остров сокровищ (1982) DVDRip [H.264] [1-3 серии из 3] торрент скачать бесплатно


    Остров сокровищ (1982) DVDRip [H.264] [1-3 серии из 3] торрент скачать бесплатно

    Дата: 10-11-2019, 05:00 | .torrent скачали: 4

    Остров сокровищ (1982) DVDRip [H.264] [1-3 серии из 3]Производство: СССР/Ленфильм
    Жанр: приключения, семейный
    Режиссер: Владимир Воробьев

    Актеры
    Федя Стуков, Олег Борисов, Виктор Костецкий, Владислав Стржельчик, Константин Григорьев, Леонид Марков, Георгий Тейх, Ольга Волкова, Валерий Золотухин, Николай Караченцов, Геннадий Юхтин, Георгий Штиль, Гелий Сысоев, Анатолий Сливников, Андрей Алексеев, Владимир Воробьёв, Николай Крюков, Олег Василюк, Игорь Ефимов, Валерий Козинец, Иосиф Кринский, Николай Кузьмин, Владимир Севостьянихин, Станислав Соколов, Филипп Школьник, Константин Воробьёв, Елена Дриацкая

    Описание

    Корабли пиратов, увлекательные странствия, поиски несметных сокровищ… На три часа вы сможете с головой погрузиться в волшебный мир приключений, полных опасностей и романтики.

    Возраст: 12+ (зрителям, достигшим 12 лет)
    Продолжительность: 00: 57: 01 + 01: 05: 43 + 01: 01: 13
    Качество видео: DVDRip
    Субтитры: отсутствуют
    Видео: AVC/H.264, 720x576, ~2739 kbps
    Аудио: AC3, 6 ch, 448 kbps
    Общее
    Уникальный идентификатор : 242669526022855555514962892106034821304 (0xB690735F7CB28C52B5690266B3E3B8B8)
    Полное имя : D: FILMSZALIVОстров_сокровищ_1982Остров сокровищ.1С.mkv
    Формат : Matroska
    Версия формата : Version 4
    Размер файла : 1, 27 Гбайт
    Продолжительность : 57 м. 1 с.
    Общий поток : 3188 Кбит/сек
    Название фильма : Остров сокровищ_1982-DVDRip-AVC_KORSAR
    Дата кодирования : UTC 2019-11-09 01: 32: 37
    Программа кодирования : mkvmerge v8.2.0 (\'World of Adventure\') 64bit
    Библиотека кодирования : libebml v1.3.1 + libmatroska v1.4.2
    Видео
    Идентификатор : 1
    Формат : AVC
    Формат/Информация : Advanced Video Codec
    Профиль формата : High@L4.1
    Настройки формата : CABAC/15 Ref Frames
    Параметр CABAC формата : Да
    Параметр RefFrames формата : 15 кадров
    Идентификатор кодека : V_MPEG4/ISO/AVC
    Продолжительность : 57 м. 1 с.
    Битрейт : 2739 Кбит/сек
    Ширина : 720 пикселей
    Высота : 576 пикселей
    Соотношение сторон : 4: 3
    Режим частоты кадров : Постоянный
    Частота кадров : 25, 000 кадров/сек
    Стандарт вещания : PAL
    Цветовое пространство : YUV
    Субдискретизация насыщенности : 4: 2: 0
    Битовая глубина : 8 бит
    Тип развёртки : Прогрессивная
    Бит/(Пиксели*Кадры) : 0.264
    Размер потока : 1, 09 Гбайт (86%)
    Библиотека кодирования : x264 core 148 r2744kMod b97ae06
    Настройки программы : cabac=1/ref=15/deblock=1: -2: -2/analyse=0x3: 0x133/me=umh/subme=10/psy=1/fade_compensate=0.00/psy_rd=1.05: 0.15/mixed_ref=1/me_range=40/chroma_me=1/trellis=2/8x8dct=1/cqm=0/deadzone=21, 11/fast_pskip=1/chroma_qp_offset=-3/threads=12/lookahead_threads=3/sliced_threads=0/nr=0/decimate=1/interlaced=0/bluray_compat=0/constrained_intra=0/bframes=10/b_pyramid=2/b_adapt=2/b_bias=0/direct=1/weightb=1/open_gop=0/weightp=2/keyint=250/keyint_min=25/scenecut=40/intra_refresh=0/rc=crf/mbtree=0/crf=18.1000/qcomp=0.60/qpmin=0/qpmax=39/qpstep=4/ip_ratio=1.40/pb_ratio=1.30/aq=2: 1.00
    Язык : English
    Default : Да
    Forced : Нет
    Цветовой диапазон : Limited
    Основные цвета : BT.601 PAL
    Характеристики трансфера : BT.470 System B/G
    Коэффициенты матрицы : BT.470 System B/G
    Аудио
    Идентификатор : 2
    Формат : AC-3
    Формат/Информация : Audio Coding 3
    Коммерческое название : Dolby Digital
    Идентификатор кодека : A_AC3
    Продолжительность : 56 м. 56 с.
    Вид битрейта : Постоянный
    Битрейт : 448 Кбит/сек
    Каналы : 6 каналов
    ChannelLayout : L R C LFE Ls Rs
    Частота : 48, 0 КГц
    Частота кадров : 31, 250 кадров/сек (1536 SPF)
    Метод сжатия : С потерями
    Размер потока : 182 Мбайт (14%)
    Язык : Russian
    ServiceKind/String : Complete Main
    Default : Да
    Forced : Нет
    Меню
    00: 00: 00.000 : en: Chapter 1
    00: 00: 05.280 : en: Chapter 2
    00: 02: 25.080 : en: Chapter 3
    00: 05: 33.040 : en: Chapter 4
    00: 17: 33.200 : en: Chapter 5
    00: 22: 33.440 : en: Chapter 6
    00: 29: 48.440 : en: Chapter 7
    00: 32: 31.960 : en: Chapter 8
    00: 43: 12.120 : en: Chapter 9
    00: 47: 37.760 : en: Chapter 10
    Общее
    Уникальный идентификатор : 227973995819177990914251831764632742431 (0xAB8231CB571D054C9F2CB915B4E02A1F)
    Полное имя : D: FILMSZALIVОстров_сокровищ_1982Остров сокровищ.2С.mkv
    Формат : Matroska
    Версия формата : Version 4
    Размер файла : 1, 34 Гбайт
    Продолжительность : 1 ч. 5 м.
    Общий поток : 2917 Кбит/сек
    Название фильма : Остров сокровищ_1982-DVDRip-AVC_KORSAR
    Дата кодирования : UTC 2019-11-09 01: 34: 32
    Программа кодирования : mkvmerge v8.2.0 (\'World of Adventure\') 64bit
    Библиотека кодирования : libebml v1.3.1 + libmatroska v1.4.2
    Видео
    Идентификатор : 1
    Формат : AVC
    Формат/Информация : Advanced Video Codec
    Профиль формата : High@L4.1
    Настройки формата : CABAC/15 Ref Frames
    Параметр CABAC формата : Да
    Параметр RefFrames формата : 15 кадров
    Идентификатор кодека : V_MPEG4/ISO/AVC
    Продолжительность : 1 ч. 5 м.
    Битрейт : 2467 Кбит/сек
    Ширина : 720 пикселей
    Высота : 576 пикселей
    Соотношение сторон : 4: 3
    Режим частоты кадров : Постоянный
    Частота кадров : 25, 000 кадров/сек
    Стандарт вещания : PAL
    Цветовое пространство : YUV
    Субдискретизация насыщенности : 4: 2: 0
    Битовая глубина : 8 бит
    Тип развёртки : Прогрессивная
    Бит/(Пиксели*Кадры) : 0.238
    Размер потока : 1, 13 Гбайт (85%)
    Библиотека кодирования : x264 core 148 r2744kMod b97ae06
    Настройки программы : cabac=1/ref=15/deblock=1: -2: -2/analyse=0x3: 0x133/me=umh/subme=10/psy=1/fade_compensate=0.00/psy_rd=1.05: 0.15/mixed_ref=1/me_range=40/chroma_me=1/trellis=2/8x8dct=1/cqm=0/deadzone=21, 11/fast_pskip=1/chroma_qp_offset=-3/threads=12/lookahead_threads=3/sliced_threads=0/nr=0/decimate=1/interlaced=0/bluray_compat=0/constrained_intra=0/bframes=10/b_pyramid=2/b_adapt=2/b_bias=0/direct=1/weightb=1/open_gop=0/weightp=2/keyint=250/keyint_min=25/scenecut=40/intra_refresh=0/rc=crf/mbtree=0/crf=18.1000/qcomp=0.60/qpmin=0/qpmax=39/qpstep=4/ip_ratio=1.40/pb_ratio=1.30/aq=2: 1.00
    Язык : English
    Default : Да
    Forced : Нет
    Цветовой диапазон : Limited
    Основные цвета : BT.601 PAL
    Характеристики трансфера : BT.470 System B/G
    Коэффициенты матрицы : BT.470 System B/G
    Аудио
    Идентификатор : 2
    Формат : AC-3
    Формат/Информация : Audio Coding 3
    Коммерческое название : Dolby Digital
    Идентификатор кодека : A_AC3
    Продолжительность : 1 ч. 5 м.
    Вид битрейта : Постоянный
    Битрейт : 448 Кбит/сек
    Каналы : 6 каналов
    ChannelLayout : L R C LFE Ls Rs
    Частота : 48, 0 КГц
    Частота кадров : 31, 250 кадров/сек (1536 SPF)
    Метод сжатия : С потерями
    Размер потока : 211 Мбайт (15%)
    Язык : Russian
    ServiceKind/String : Complete Main
    Default : Да
    Forced : Нет
    Меню
    00: 00: 00.000 : en: Chapter 1
    00: 05: 53.920 : en: Chapter 2
    00: 13: 54.400 : en: Chapter 3
    00: 17: 35.560 : en: Chapter 4
    00: 19: 40.840 : en: Chapter 5
    00: 23: 15.640 : en: Chapter 6
    00: 29: 00.240 : en: Chapter 7
    00: 32: 08.040 : en: Chapter 8
    00: 36: 16.560 : en: Chapter 9
    00: 40: 33.680 : en: Chapter 10
    00: 44: 57.280 : en: Chapter 11
    00: 49: 14.160 : en: Chapter 12
    00: 57: 33.440 : en: Chapter 13
    Общее
    Уникальный идентификатор : 238201382879304028397378453485628817185 (0xB333EAE85E78FC3A91DFEA44DE7DFF21)
    Полное имя : D: FILMSZALIVОстров_сокровищ_1982Остров сокровищ.3С.mkv
    Формат : Matroska
    Версия формата : Version 4
    Размер файла : 1, 34 Гбайт
    Продолжительность : 1 ч. 1 м.
    Общий поток : 3132 Кбит/сек
    Название фильма : Остров сокровищ_1982-DVDRip-AVC_KORSAR
    Дата кодирования : UTC 2019-11-09 01: 36: 18
    Программа кодирования : mkvmerge v8.2.0 (\'World of Adventure\') 64bit
    Библиотека кодирования : libebml v1.3.1 + libmatroska v1.4.2
    Видео
    Идентификатор : 1
    Формат : AVC
    Формат/Информация : Advanced Video Codec
    Профиль формата : High@L4.1
    Настройки формата : CABAC/15 Ref Frames
    Параметр CABAC формата : Да
    Параметр RefFrames формата : 15 кадров
    Идентификатор кодека : V_MPEG4/ISO/AVC
    Продолжительность : 1 ч. 1 м.
    Битрейт : 2682 Кбит/сек
    Ширина : 720 пикселей
    Высота : 576 пикселей
    Соотношение сторон : 4: 3
    Режим частоты кадров : Постоянный
    Частота кадров : 25, 000 кадров/сек
    Стандарт вещания : PAL
    Цветовое пространство : YUV
    Субдискретизация насыщенности : 4: 2: 0
    Битовая глубина : 8 бит
    Тип развёртки : Прогрессивная
    Бит/(Пиксели*Кадры) : 0.259
    Размер потока : 1, 15 Гбайт (86%)
    Библиотека кодирования : x264 core 148 r2744kMod b97ae06
    Настройки программы : cabac=1/ref=15/deblock=1: -2: -2/analyse=0x3: 0x133/me=umh/subme=10/psy=1/fade_compensate=0.00/psy_rd=1.05: 0.15/mixed_ref=1/me_range=40/chroma_me=1/trellis=2/8x8dct=1/cqm=0/deadzone=21, 11/fast_pskip=1/chroma_qp_offset=-3/threads=12/lookahead_threads=3/sliced_threads=0/nr=0/decimate=1/interlaced=0/bluray_compat=0/constrained_intra=0/bframes=10/b_pyramid=2/b_adapt=2/b_bias=0/direct=1/weightb=1/open_gop=0/weightp=2/keyint=250/keyint_min=25/scenecut=40/intra_refresh=0/rc=crf/mbtree=0/crf=18.1000/qcomp=0.60/qpmin=0/qpmax=39/qpstep=4/ip_ratio=1.40/pb_ratio=1.30/aq=2: 1.00
    Язык : English
    Default : Да
    Forced : Нет
    Цветовой диапазон : Limited
    Основные цвета : BT.601 PAL
    Характеристики трансфера : BT.470 System B/G
    Коэффициенты матрицы : BT.470 System B/G
    Аудио
    Идентификатор : 2
    Формат : AC-3
    Формат/Информация : Audio Coding 3
    Коммерческое название : Dolby Digital
    Идентификатор кодека : A_AC3
    Продолжительность : 1 ч. 1 м.
    Вид битрейта : Постоянный
    Битрейт : 448 Кбит/сек
    Каналы : 6 каналов
    ChannelLayout : L R C LFE Ls Rs
    Частота : 48, 0 КГц
    Частота кадров : 31, 250 кадров/сек (1536 SPF)
    Метод сжатия : С потерями
    Размер потока : 196 Мбайт (14%)
    Язык : Russian
    ServiceKind/String : Complete Main
    Default : Да
    Forced : Нет
    Меню
    00: 00: 00.000 : en: Chapter 1
    00: 05: 46.200 : en: Chapter 2
    00: 08: 58.680 : en: Chapter 3
    00: 16: 15.480 : en: Chapter 4
    00: 18: 48.840 : en: Chapter 5
    00: 24: 23.360 : en: Chapter 6
    00: 33: 01.480 : en: Chapter 7
    00: 39: 12.120 : en: Chapter 8
    00: 47: 15.840 : en: Chapter 9
    00: 51: 25.440 : en: Chapter 10
    00: 53: 04.040 : en: Chapter 11
    00: 57: 15.840 : en: Chapter 12

    Скриншоты для ознакомления





    Все одноименные релизы в Клубе
    Время раздачи: с 5 до 19 мск (до появления первых 3-5 скачавших)

    Онлайн видео Остров сокровищ (1982) DVDRip [H.264] [1



    Остров сокровищ (1982) DVDRip [H.264] [1-3 серии из 3]
    Рейтинг →
     (голосов: 1, оценка 5/5, голосовать можно 1 раз )

    Другие торренты по теме:

  • Остров сокровищ / Treasure Island (1990) WEB-DL [H.264 / 720p-LQ] скачать через торрент бесплатно
  • Остров сокровищ / Treasure Island (1950) BDRip [H.264] [VO]
  • Роберт Льюис Стивенсон | Остров сокровищ. Часть 1 и 2 (2015) [MP3]
  • Роберт Луис Стивенсон | Остров сокровищ (1996) [WavPack]
  • Остров сокровищ (1971) HDTVRip [H.264 / 720p]
  • Остров сокровищ / Treasure Island (1972) BDRip [H.264 / 720p]
  • Битва за остров сокровищ / Haakon Haakonsen (1990) DVDRip [H.264]
  • Остров сокровищ / Treasure Island (1950) BDRip [H.265 / 1080p] [10-bit] [VO]


    • Комментарии (0):

      Информация

      Информация

        Посетители, находящиеся в группе Гости, не могут оставлять комментарии в данной новости.

        ↓ Меню




        ↓ Опрос

        Вы добавили сайт в закладки?
        Да
        Нет


        Популярное