.
Авторизация | Регистрация
bitok.xyz
» » Underbar Summer | Лето [2006, OVA, 2 эп. + 2 SP] DVDrip 720 10bit raw торрент скачать бесплатно


    Underbar Summer | Лето [2006, OVA, 2 эп. + 2 SP] DVDrip 720 10bit raw торрент скачать бесплатно

    Дата: 10-11-2019, 05:00 | .torrent скачали: 0

    Underbar Summer | Лето [2006, OVA, 2 эп. + 2 SP] DVDrip 720 10bit rawЖанр: романтика, комедия, повседневность
    Тип: OVA
    Продолжительность: 2 эп. по 25 мин. + 2 SP по 5 мин.
    Количество серий: 2 из 2 + 2 SP
    Выпуск: c 27.10.2006 по 26.01.2007
    Производство: студияRikuentai/陸演隊
    Режиссер: Окао Такахиро
    Ссылки: World-Art, ANN, AniDB, MyAnimeList

    Описание

    Такуми необычный подросток: он совсем не интересуется девушками. Его лучший друг, Осаму, отказывается в это верить и ставит целью найти другу ту, в которую он влюбится безпамяти. У Осамы множество вариантов: торжествующая и жуткая Чива, сильная Шинано, его сводная сестра Сэна, идол школы Уокена, подруга детсва Коэми! Кого же из этих девочек полюбит Такуми?
    Качество видео: DVDrip
    Видео: HEVC (Main10@L4.1@High) 10 bit, 1280x720 (16: 9), ~25.147 fps, ~3558 kbps
    Аудио: AC-3, 2 ch, 48 kHz, ~192 kbps |Звук: Японский
    Язык озвучки: Японский
    Субтитры: Русские; Английские
    Перевод: skvoz\'NiAK Ursuladog (OVA), Phil (SP)

    Скриншоты для ознакомления




    General
    Unique ID : 257701885123130485197831868195842939670 (0xC1DF93E6019D0B60835B5606883DDB16)
    Complete name : Underbar Summer OVA DVDRip 1280x720 HEVC AC3HQR Underbar Summer OVA -01- (DVDRip 1280x720 HEVC ac3).mkv
    Format : Matroska
    Format version : Version 4
    File size : 676 MiB
    Duration : 25 min 10 s
    Overall bit rate : 3 754 kb/s
    Encoded date : UTC 2019-09-27 15: 14: 20
    Writing application : mkvmerge v35.0.0 (\'All The Love In The World\') 32-bit
    Writing library : libebml v1.3.9 + libmatroska v1.5.2
    Video
    ID : 1
    Format : HEVC
    Format/Info : High Efficiency Video Coding
    Format profile : Main10@L4.1@High
    Codec ID : V_MPEGH/ISO/HEVC
    Duration : 25 min 10 s
    Bit rate : 3 558 kb/s
    Width : 1 280 pixels
    Height : 720 pixels
    Display aspect ratio : 16: 9
    Frame rate mode : Variable
    Frame rate : 25.147 FPS
    Color space : YUV
    Chroma subsampling : 4: 2: 0
    Bit depth : 10 bits
    Bits/(Pixel*Frame) : 0.154
    Stream size : 641 MiB (95%)
    Title : HQR Underbar Summer OVA
    Writing library : x265 3.1.2+5-386afefca988: DJATOM\'s ModWindowsGCC 9.1.164 bit 10bit
    Encoding settings : cpuid=1111039/frame-threads=8/numa-pools=12/wpp/no-pmode/no-pme/no-psnr/no-ssim/log-level=2/csv/csv-log-level=2/input-csp=1/input-res=1280x720/interlace=0/total-frames=37993/level-idc=41/high-tier=1/uhd-bd=0/ref=6/no-allow-non-conformance/no-repeat-t_heads/annexb/no-aud/no-hrd/info/hash=0/no-temporal-layers/open-gop/min-keyint=24/keyint=240/gop-lookahead=0/bframes=9/b-adapt=2/b-pyramid/bframe-bias=0/rc-lookahead=20/lookahead-slices=4/scenecut=40/radl=0/no-splice/no-intra-refresh/ctu=64/min-cu-size=8/no-rect/no-amp/max-tu-size=32/tu-inter-depth=2/tu-intra-depth=2/limit-tu=0/rdoq-level=2/dynamic-rd=0.00/no-ssim-rd/signhide/no-tskip/nr-intra=0/nr-inter=0/no-constrained-intra/strong-intra-smoothing/max-merge=3/limit-refs=1/limit-modes/me=2/subme=6/merange=48/temporal-mvp/hme/Level/weightp/weightb/no-analyze-src-pics/deblock=1: -1/no-sao/no-sao-non-deblock/rd=4/early-skip/no-rskip/no-fast-intra/no-tskip-fast/no-cu-lossless/b-intra/no-splitrd-skip/rdpenalty=0/psy-rd=2.00/psy-rdoq=2.00/no-rd-refine/no-lossless/cbqpoffs=-2/crqpoffs=-2/rc=crf/crf=16.0/qcomp=0.68/qpstep=4/stats-write=0/stats-read=0/vbv-maxrate=50000/vbv-bufsize=50000/vbv-init=0.9/crf-max=0.0/crf-min=0.0/ipratio=1.40/pbratio=1.30/aq-mode=3/aq-strength=0.80/no-cutree/zone-count=0/no-strict-cbr/qg-size=32/no-rc-grain/qpmax=69/qpmin=0/no-const-vbv/sar=1/overscan=0/videoformat=5/range=0/colorprim=1/transfer=1/colormatrix=1/chromaloc=0/display-window=0cll=0, 0/min-luma=0/max-luma=1023/log2-max-poc-lsb=8/vui-timing-info/vui-hrd-info/slices=1/no-opt-qp-pps/no-opt-ref-list-length-pps/no-multi-pass-opt-rps/scenecut-bias=0.05/no-opt-cu-delta-qp/no-aq-motion/no-hdr/no-hdr-opt/no-dhdr10-opt/no-idr-recovery-sei/analysis-reuse-level=5/scale-factor=0/refine-intra=0/refine-inter=0/refine-mv=0/refine-ctu-distortion=0/no-limit-sao/ctu-info=0/no-lowpass-dct/refine-analysis-type=0/copy-pic=1/max-ausize-factor=1.0/no-dynamic-refine/no-single-sei/hevc-aq/no-svt/no-field/qp-adaptation-range=2.00
    Default : Yes
    Forced : No
    Color range : Limited
    Color primaries : BT.709
    Transfer characteristics : BT.709
    Matrix coefficients : BT.709
    Audio
    ID : 2
    Format : AC-3
    Format/Info : Audio Coding 3
    Commercial name : Dolby Digital
    Codec ID : A_AC3
    Duration : 25 min 10 s
    Bit rate mode : Constant
    Bit rate : 192 kb/s
    Channel(s) : 2 channels
    Channel layout : L R
    Sampling rate : 48.0 kHz
    Frame rate : 31.250 FPS (1536 SPF)
    Compression mode : Lossy
    Stream size : 34.6 MiB (5%)
    Title : Original
    Language : Japanese
    Service kind : Complete Main
    Default : Yes
    Forced : No
    Время раздачи: круглосуточно

    Онлайн видео Underbar Summer



    Underbar Summer | Лето [2006, OVA, 2 эп. + 2 SP] DVDrip 720 10bit raw
    Рейтинг →
     (голосов: 1, оценка 4/5, голосовать можно 1 раз )

    Другие торренты по теме:



      Комментарии (0):

      Информация

      Информация

        Посетители, находящиеся в группе Гости, не могут оставлять комментарии в данной новости.

        ↓ Меню




        ↓ Опрос

        Вы добавили сайт в закладки?
        Да
        Нет


        Популярное