.
Авторизация | Регистрация
bitok.xyz
» » Питомец Юрского периода / The Adventures of Jurassic Pet (2019) WEB-DLRip [H.265] [10-bit] торрент скачать бесплатно


    Питомец Юрского периода / The Adventures of Jurassic Pet (2019) WEB-DLRip [H.265] [10-bit] торрент скачать бесплатно

    Дата: 12-11-2019, 05:00 | .torrent скачали: 1

    Питомец Юрского периода / The Adventures of Jurassic Pet (2019) WEB-DLRip [H.265] [10-bit]Производство: США/Ace Entertainment Films, The Adventures of Jurassic Pet, Boiling Point Media
    Жанр: Приключения, семейный
    Режиссер: Райан Беллгардт

    Актеры
    Дэвид Флетчер-Холл, Кайлер Чарльз Бек, Бен Холл, Брукс Райан, Томас Ривас, Джэми Лой, Ли Боччаччи, Лори Каммингс, Джейк Уошберн, С. Нил Девенпорт

    Описание

    Любознательный подросток Крис получает в подарок необычное яйцо, из которого вылупляется его новый друг — динозавр Альберт. Впереди их ждут опасные приключения, ведь за Альбертом охотится алчный ученый, чтобы провести над ним свои безумные эксперименты.

    Возраст: 6+ (зрителям, достигшим 6 лет)
    Рейтинг MPAA: PG (рекомендуется присутствие родителей)
    Дата мировой премьеры: 16 апреля 2019
    Дата российской премьеры: 12 июня 2019, Планета Информ
    Продолжительность: 01: 21: 11
    Качество видео: WEB-DLRip
    Перевод: Дублированный (iTunes)
    Субтитры: Отсутствуют
    Видео: HEVC/H.265, 1024x428, 1942 Kbps
    Аудио: AC3, 2 ch, 160 Kbps | РусскийОбщее
    Уникальный идентификатор : 93031361621876497040794040385413303447 (0x45FD304249A207F0D3DE87F9561FCC97)
    Полное имя : Pitomets.Yurskogo.perioda.2019.WEB-DLRip.10bit.HEVC.mkv
    Формат : Matroska
    Версия формата : Version 4/Version 2
    Размер файла : 1, 22 Гбайт
    Продолжительность : 1 ч. 21 м.
    Общий поток : 2145 Кбит/сек
    Программа кодирования : XviD4PSP 8.0.91
    Библиотека кодирования : Lavf58.20.100
    ErrorDetectionType : Per level 1
    ENCODING_INFO : MATROSKA, WEBM MKV
    Видео
    Идентификатор : 1
    Формат : HEVC
    Формат/Информация : High Efficiency Video Coding
    Профиль формата : Main10@L4.1@High
    Идентификатор кодека : V_MPEGH/ISO/HEVC
    Продолжительность : 1 ч. 21 м.
    Битрейт : 1942 Кбит/сек
    Ширина : 1024 пикселя
    Высота : 428 пикселей
    Соотношение сторон : 2, 40: 1
    Режим частоты кадров : Постоянный
    Частота кадров : 25, 000 кадров/сек
    Цветовое пространство : YUV
    Субдискретизация насыщенности : 4: 2: 0
    Битовая глубина : 10 бит
    Бит/(Пиксели*Кадры) : 0.177
    Размер потока : 1, 10 Гбайт (91%)
    Язык : English
    Default : Да
    Forced : Нет
    Цветовой диапазон : Limited
    Основные цвета : BT.709
    Характеристики трансфера : BT.709
    Коэффициенты матрицы : BT.709
    ENCODING_INFO : H264 HEVC NVENC VBR 2000kbps HQ
    Аудио
    Идентификатор : 2
    Формат : AC-3
    Формат/Информация : Audio Coding 3
    Параметр Endianness формата : Big
    Идентификатор кодека : A_AC3
    Продолжительность : 1 ч. 21 м.
    Вид битрейта : Постоянный
    Битрейт : 160 Кбит/сек
    Каналы : 2 канала
    Расположение каналов : Front: L R
    Частота : 48, 0 КГц
    Частота кадров : 31, 250 кадров/сек (1536 SPF)
    Битовая глубина : 16 бит
    Метод сжатия : С потерями
    Размер потока : 92, 9 Мбайт (7%)
    Язык : Russian
    ServiceKind/String : Complete Main
    Default : Да
    Forced : Нет
    ENCODING_INFO : AC3 AC3 CBR 160kbps
    Меню
    00: 00: 00.000 : : Глава 1
    00: 06: 11.120 : : Глава 2
    00: 12: 00.880 : : Глава 3
    00: 16: 55.920 : : Глава 4
    00: 25: 09.920 : : Глава 5
    00: 31: 23.560 : : Глава 6
    00: 38: 02.920 : : Глава 7
    00: 44: 26.480 : : Глава 8
    00: 49: 47.040 : : Глава 9
    00: 55: 56.400 : : Глава 10
    01: 03: 11.440 : : Глава 11
    01: 10: 56.319 : : Глава 12

    Скриншоты для ознакомления



    Все одноименные релизы в Клубе
    Время раздачи: 19 - 23 (до появления первых 3-5 скачавших)

    Онлайн видео Питомец Юрского периода



    Питомец Юрского периода/The Adventures of Jurassic Pet (2019) WEB-DLRip [H.265] [10-bit]
    Рейтинг →
     (голосов: 1, оценка 5/5, голосовать можно 1 раз )

    Другие торренты по теме:

  • Питомец Юрского периода / The Adventures of Jurassic Pet (2019) WEB-DLRip [MVO] [AD]
  • Питомец Юрского периода / The Adventures of Jurassic Pet (2019) DVDRip [MVO]
  • Питомец Юрского периода / The Adventures of Jurassic Pet (2019) WEB-DL [H.264 / 1080p-LQ]


    • Комментарии (0):

      Информация

      Информация

        Посетители, находящиеся в группе Гости, не могут оставлять комментарии в данной новости.

        ↓ Меню




        ↓ Опрос

        Вы добавили сайт в закладки?
        Да
        Нет


        Популярное

        Футурама / Futurama (1999-2013) DVDRip (7 Сезонов, 140 серии) скачать через торрент бесплатно

        (скачиваний: 77)
        Малышарики (2015-2019) WEB-DL [H.264 / 1080p-LQ] (серии 1-154 из 208) [Обновляемая]

        (скачиваний: 67)
        Жила-была царевна (2015-2019) WEB-DLRip [H.264 / 720p-LQ] (сезон 1, серии 1-18 из 26) [Обновляемая]

        (скачиваний: 43)
        Металионы / Metalions (2018-2019) WEB-DLRip [H.264 / 720p-LQ] (сезон 1, серии 1-52 из 52) [Обновляемая]

        (скачиваний: 34)
        Рик и Морти / Rick and Morty (2013) BDRip [H.264 / 1080p] (Сезон 1, серии 1-11 из 11) Сыендук [EN Sub] скачать через торрент бесплатно

        (скачиваний: 34)
        Три кота (2018) WEB-DLRip [H.264 / 720p-LQ] (сезон 3, серии 105-106 из 156)

        (скачиваний: 29)
        В гостях у сказки (сборник 56 фильмов) (1939-2009) DVDRip

        (скачиваний: 29)
        Спокойной ночи, малыши! (2009, 2015) SATRip, TVRip (83 выпусков)

        (скачиваний: 19)
        Рик и Морти / Rick and Morty (2013) BDRip [H.264 / 720p-LQ] (сезон 1, серии 1-11 из 11) Сыендук

        (скачиваний: 18)
        Рик и Морти / Rick and Morty (2015) WEB-DL [H.264 / 1080p] (Сезон 2, серии 1-10 из 10) Сыендук [EN / RU Sub] скачать через торрент бесплатно

        (скачиваний: 17)