.
Авторизация | Регистрация
bitok.xyz
» » Отель Хазбин / Hazbin Hotel (2019) WEBRip [H.264 / 1080p-LQ] (сезон 1, серия 1 из 10) NewStation торрент скачать бесплатно


    Отель Хазбин / Hazbin Hotel (2019) WEBRip [H.264 / 1080p-LQ] (сезон 1, серия 1 из 10) NewStation торрент скачать бесплатно

    Дата: 14-11-2019, 05:00 | .torrent скачали: 7

    Отель Хазбин / Hazbin Hotel (2019) WEBRip [H.264 / 1080p-LQ] (сезон 1, серия 1 из 10) NewStationПроизводство: США
    Жанр: Мультсериал, комедия, драма, фэнтези, мюзикл
    Режиссер: Вивьен Медрано

    Актеры
    Джилл Харрис, Элси Лавлок, Моника Франко, Майкл Ковач, Сет Аткинсон, Эдвард Боско

    Описание

    Это история о Чарли, принцессе ада, и её стремлении открыть отель для реабилитации демонов.

    Релиз от: NewStation
    Продолжительность: ~00: 35: 00 серия
    Качество видео: WEBRip
    Перевод: Многоголосый любительский (NewStation)присутствует ненормативная лексика
    Субтитры: отсутствуют
    Видео: AVC/H.264, 1920х1080, ~2490 Kbps
    Аудио #1 : AC3, 2 ch, 256 kbps, - Русский (NewStation)
    Аудио #2 : AAC, 2 ch, 126 kbps, - Английский
    Общее
    Уникальный идентификатор : 159325995255757933825135955710235554938 (0x77DD120D7BAEA1017032E98B412AB47A)
    Полное имя : F: NewStationHazbin.Hotel.S01.WEBRip.1080p.NewStationHazbin.Hotel.S01E01.WEBRip.1080p.NewStation.mkv
    Формат : Matroska
    Версия формата : Version 4/Version 2
    Размер файла : 648 Мбайт
    Продолжительность : 31 м. 45 с.
    Общий поток : 2853 Кбит/сек
    Дата кодирования : UTC 2019-10-31 14: 17: 57
    Программа кодирования : mkvmerge v28.1.0 (\'Morning Child\') 64-bit
    Библиотека кодирования : libebml v1.3.6 + libmatroska v1.4.9
    Видео
    Идентификатор : 1
    Формат : AVC
    Формат/Информация : Advanced Video Codec
    Профиль формата : High@L4
    Настройки формата : CABAC/4 Ref Frames
    Параметр CABAC формата : Да
    Параметр RefFrames формата : 4 кадра
    Идентификатор кодека : V_MPEG4/ISO/AVC
    Продолжительность : 31 м. 45 с.
    Битрейт : 2490 Кбит/сек
    Ширина : 1920 пикселей
    Высота : 1080 пикселей
    Соотношение сторон : 16: 9
    Режим частоты кадров : Постоянный
    Частота кадров : 24, 000 кадра/сек
    Цветовое пространство : YUV
    Субдискретизация насыщенности : 4: 2: 0
    Битовая глубина : 8 бит
    Тип развёртки : Прогрессивная
    Бит/(Пиксели*Кадры) : 0.050
    Размер потока : 560 Мбайт (86%)
    Библиотека кодирования : x264 core 148
    Настройки программы : cabac=1/ref=3/deblock=1: 0: 0/analyse=0x3: 0x113/me=hex/subme=7/psy=1/psy_rd=1.00: 0.00/mixed_ref=1/me_range=16/chroma_me=1/trellis=1/8x8dct=1/cqm=0/deadzone=21, 11/fast_pskip=1/chroma_qp_offset=-2/threads=3/lookahead_threads=1/sliced_threads=0/nr=0/decimate=1/interlaced=0/bluray_compat=0/constrained_intra=0/bframes=3/b_pyramid=2/b_adapt=1/b_bias=0/direct=1/weightb=1/open_gop=0/weightp=2/keyint=250/keyint_min=24/scenecut=40/intra_refresh=0/rc_lookahead=40/rc=abr/mbtree=1/bitrate=2490/ratetol=1.0/qcomp=0.60/qpmin=0/qpmax=69/qpstep=4/ip_ratio=1.40/aq=1: 1.00
    Default : Да
    Forced : Нет
    Аудио #1
    Идентификатор : 2
    Формат : AC-3
    Формат/Информация : Audio Coding 3
    Идентификатор кодека : A_AC3
    Продолжительность : 31 м. 45 с.
    Вид битрейта : Постоянный
    Битрейт : 256 Кбит/сек
    Каналы : 2 канала
    Расположение каналов : Front: L R
    Частота : 48, 0 КГц
    Частота кадров : 31, 250 кадров/сек (1536 SPF)
    Битовая глубина : 16 бит
    Метод сжатия : С потерями
    Размер потока : 58, 2 Мбайт (9%)
    Заголовок : NewStation
    Язык : Russian
    ServiceKind/String : Complete Main
    Default : Да
    Forced : Нет
    Аудио #2
    Идентификатор : 3
    Формат : AAC
    Формат/Информация : Advanced Audio Codec
    Профиль формата : LC
    Идентификатор кодека : A_AAC-2
    Продолжительность : 31 м. 45 с.
    Битрейт : 128 Кбит/сек
    Каналы : 2 канала
    Расположение каналов : Front: L R
    Частота : 44, 1 КГц
    Частота кадров : 43, 066 кадра/сек (1024 SPF)
    Метод сжатия : С потерями
    Размер потока : 29, 1 Мбайт (4%)
    Язык : English
    Default : Нет
    Forced : Нет


    Онлайн видео Отель Хазбин



    Отель Хазбин/Hazbin Hotel (2019) WEBRip [H.264/1080p-LQ] (сезон 1, серия 1 из 10) NewStation
    Рейтинг →
     (голосов: 1, оценка 4/5, голосовать можно 1 раз )

    Другие торренты по теме:

  • Отель "У погибшего альпиниста" (1979) DVDRip [H.264] скачать через торрент бесплатно
  • Отель «Руанда» / Hotel Rwanda (2004) BDRemux [1080p]
  • Отель "У погибшего альпиниста" (1979) DVDRip [H.264] скачать через торрент бесплатно
  • Калифорнийский отель / California Suite (1978) DVDRip [H.264]
  • Аркадий и Борис Стругацкие | Отель У погибшего альпиниста (2013) [m4b|AAC] скачать через торрент бесплатно
  • Отель «Гранд Будапешт» / The Grand Budapest Hotel (2014) BDRemux [1080p] скачать через торрент бесплатно
  • Haunted Hotel 8: Eternity / Проклятый отель 8: Вечность (2015) [Ru] Unofficial [Collectors Edition / Коллекционное издание] скачать через торрент бесплатно
  • Отель «Мэриголд». Заселение продолжается / The Second Best Exotic Marigold Hotel (2015) HDRip [Звук с TS] скачать через торрент бесплатно


    • Комментарии (0):

      Информация

      Информация

        Посетители, находящиеся в группе Гости, не могут оставлять комментарии в данной новости.

        ↓ Меню




        ↓ Опрос

        Вы добавили сайт в закладки?
        Да
        Нет


        Популярное