.
Авторизация | Регистрация
bitok.xyz
» » Бэтмен и Мистер Фриз: Ниже нуля / Batman & Mr. Freeze: SubZero (1998) BDRip [H.264 / 1080p] торрент скачать бесплатно


    Бэтмен и Мистер Фриз: Ниже нуля / Batman & Mr. Freeze: SubZero (1998) BDRip [H.264 / 1080p] торрент скачать бесплатно

    Дата: 14-11-2019, 05:00 | .torrent скачали: 1

    Бэтмен и Мистер Фриз: Ниже нуля / Batman & Mr. Freeze: SubZero (1998) BDRip [H.264 / 1080p]Производство: США, Warner Bros. Animation
    Жанр: Рисованная анимация, Приключения
    Режиссер: Бойд Керклэнд
    Персонажи: Брюс Уэйн (Бэтмен), Дик Грейсон (Робин), Барбара Гордон (Бэтгёрл), Мистер Фриз

    Описание

    Американская подводная лодка, во время плавания в Северном Ледовитом океане, при всплытии, случайно обрушивает своды ледяной пещеры, где обитает Мистер Фриз со своими воспитанником — мальчиком-эскимосом Кунаком. При этом анабиозная камера, в которой находится тяжело больная жена Фриза, Нора, разбивается. В ярости Фриз замораживает всю команду лодки, после чего отправляется в Готэм-сити. Там он похищает Барбару Гордон. Бэтмэн и Робин выясняют леденящие кровь подробности плана хладнокровного — во всех смыслах — преступника. Они должны успеть спасти свою подругу, прежде чем мистер Фриз использует её в своих планах.

    Возраст: 0+ (для любой зрительской аудитории)
    Рейтинг MPAA: PG (рекомендуется присутствие родителей)
    Дата мировой премьеры: 11.02.1998
    Продолжительность: 01: 06: 35
    Качество видео: BDRip
    Перевод: Дублированный (Варус Видео), Многоголосый закадровый (ТВ3)
    Субтитры: Русский, Английский
    Видео: AVC/H.264, 1440x1080, ~7876 kbps
    Аудио 1: AC3, 2 ch, 224 kbps | Русский (Варус Видео)
    Аудио 2: AC3, 2 ch, 192 kbps | Русский (ТВ3)
    Аудио 3: DTS, 2 ch, 1509 kbps | Английский
    General
    Unique ID : 199361197275725205324658775789049279222 (0x95FB91E8C82F5E12BA1D0E1D8A98F2F6)
    Complete name : Batman and Mr.Freeze. SubZero_1080p_RU_NNM-Club.mkv
    Format : Matroska
    Format version : Version 4/Version 2
    File size : 4.56 GiB
    Duration : 1 h 6 min
    Overall bit rate : 9 804 kb/s
    Encoded date : UTC 2019-11-12 17: 40: 12
    Writing application : mkvmerge v7.1.0 (\'Good Love\') 64bit built on Jul 27 2014 13: 06: 55
    Writing library : libebml v1.3.0 + libmatroska v1.4.1
    Cover : Yes
    Attachments : Cover.jpg
    Video
    ID : 1
    Format : AVC
    Format/Info : Advanced Video Codec
    Format profile : High@L4.1
    Format settings : CABAC/5 Ref Frames
    Format settings, CABAC : Yes
    Format settings, ReFrames : 5 frames
    Codec ID : V_MPEG4/ISO/AVC
    Duration : 1 h 6 min
    Bit rate : 7 885 kb/s
    Width : 1 440 pixels
    Height : 1 080 pixels
    Display aspect ratio : 4: 3
    Frame rate mode : Constant
    Frame rate : 23.976 (24000/1001) FPS
    Color space : YUV
    Chroma subsampling : 4: 2: 0
    Bit depth : 8 bits
    Scan type : Progressive
    Bits/(Pixel*Frame) : 0.211
    Stream size : 3.66 GiB (80%)
    Writing library : x264 core 155 r2901 7d0ff22
    Encoding settings : cabac=1/ref=5/deblock=1: 1: -2/analyse=0x3: 0x113/me=umh/subme=8/psy=1/psy_rd=0.50: 0.00/mixed_ref=1/me_range=32/chroma_me=1/trellis=2/8x8dct=1/cqm=0/deadzone=21, 11/fast_pskip=1/chroma_qp_offset=-2/threads=24/lookahead_threads=4/sliced_threads=0/nr=0/decimate=1/interlaced=0/bluray_compat=0/constrained_intra=0/bframes=3/b_pyramid=2/b_adapt=2/b_bias=0/direct=3/weightb=1/open_gop=0/weightp=2/keyint=240/keyint_min=24/scenecut=40/intra_refresh=0/rc_lookahead=50/rc=2pass/mbtree=1/bitrate=7885/ratetol=1.0/qcomp=0.60/qpmin=0/qpmax=69/qpstep=4/cplxblur=20.0/qblur=0.5/ip_ratio=1.40/aq=3: 0.50
    Default : Yes
    Forced : No
    Audio #1
    ID : 2
    Format : AC-3
    Format/Info : Audio Coding 3
    Codec ID : A_AC3
    Duration : 1 h 6 min
    Bit rate mode : Constant
    Bit rate : 224 kb/s
    Channel(s) : 2 channels
    Channel positions : Front: L R
    Sampling rate : 48.0 kHz
    Frame rate : 31.250 FPS (1536 SPF)
    Bit depth : 16 bits
    Compression mode : Lossy
    Stream size : 107 MiB (2%)
    Title : DUB (ВарусВидео)
    Language : Russian
    Service kind : Complete Main
    Default : No
    Forced : No
    Audio #2
    ID : 3
    Format : AC-3
    Format/Info : Audio Coding 3
    Codec ID : A_AC3
    Duration : 1 h 6 min
    Bit rate mode : Constant
    Bit rate : 192 kb/s
    Channel(s) : 2 channels
    Channel positions : Front: L R
    Sampling rate : 48.0 kHz
    Frame rate : 31.250 FPS (1536 SPF)
    Bit depth : 16 bits
    Compression mode : Lossy
    Stream size : 91.4 MiB (2%)
    Title : MVO (ТВ3)
    Language : Russian
    Service kind : Complete Main
    Default : No
    Forced : No
    Audio #3
    ID : 4
    Format : DTS
    Format/Info : Digital Theater Systems
    Codec ID : A_DTS
    Duration : 1 h 6 min
    Bit rate mode : Constant
    Bit rate : 1 509 kb/s
    Channel(s) : 2 channels
    Channel positions : Front: L R
    Sampling rate : 48.0 kHz
    Frame rate : 93.750 FPS (512 SPF)
    Bit depth : 24 bits
    Compression mode : Lossy
    Stream size : 719 MiB (15%)
    Title : Original
    Language : English
    Default : No
    Forced : No
    Text #1
    ID : 5
    Format : UTF-8
    Codec ID : S_TEXT/UTF8
    Codec ID/Info : UTF-8 Plain Text
    Duration : 59 min 49 s
    Bit rate : 58 b/s
    Count of elements : 618
    Stream size : 25.7 KiB (0%)
    Language : Russian
    Default : No
    Forced : No
    Text #2
    ID : 6
    Format : UTF-8
    Codec ID : S_TEXT/UTF8
    Codec ID/Info : UTF-8 Plain Text
    Duration : 1 h 1 min
    Bit rate : 40 b/s
    Count of elements : 747
    Stream size : 18.3 KiB (0%)
    Language : English
    Default : No
    Forced : No
    Menu
    00: 00: 00.000 : : 00: 00: 00.000
    00: 02: 14.926 : : 00: 02: 14.926
    00: 05: 28.745 : : 00: 05: 28.745
    00: 07: 46.299 : : 00: 07: 46.299
    00: 11: 32.901 : : 00: 11: 32.901
    00: 13: 45.199 : : 00: 13: 45.199
    00: 16: 50.843 : : 00: 16: 50.843
    00: 19: 30.503 : : 00: 19: 30.503
    00: 21: 30.956 : : 00: 21: 30.956
    00: 25: 22.855 : : 00: 25: 22.855
    00: 29: 10.916 : : 00: 29: 10.916
    00: 32: 27.195 : : 00: 32: 27.195
    00: 37: 29.664 : : 00: 37: 29.664
    00: 38: 53.665 : : 00: 38: 53.665
    00: 43: 33.820 : : 00: 43: 33.820
    00: 46: 13.729 : : 00: 46: 13.729
    00: 52: 40.282 : : 00: 52: 40.282
    00: 54: 31.935 : : 00: 54: 31.935
    00: 57: 53.637 : : 00: 57: 53.637
    01: 00: 57.737 : : 01: 00: 57.737
    01: 02: 30.872 : : 01: 02: 30.872

    File: Batman and Mr.Freeze. SubZero_1080p_RU_NNM-Club.mkv
    Duration: 01: 06: 35 (3995.02)
    Track #1: video
    lang: und (1)
    codc: V_MPEG4/ISO/AVC - H264/AVC (22)
    reso: 1440x1080 - Unknown (aka not common)
    fram: 23.976 fps
    rate: 7876 kbps (7875.96)
    dura: 01: 06: 35 (3994.95)
    size: 3.66 GB (3933008996)
    Track #2: audio (DUB (ВарусВидео))
    lang: rus - Russian (15)
    codc: A_AC3 - AC3 (2)
    chan: 2 - Stereo
    samp: 48000 Hz
    rate: 224 kbps (224.05)
    dura: 01: 06: 35 (3994.75)
    size: 106.69 MB (111876985)
    Track #3: audio (MVO (ТВ3))
    lang: rus - Russian (15)
    codc: A_AC3 - AC3 (2)
    chan: 2 - Stereo
    samp: 48000 Hz
    rate: 192 kbps (192.05)
    dura: 01: 06: 35 (3994.75)
    size: 91.45 MB (95896943)
    Track #4: audio (Original)
    lang: Unknown (1)
    codc: A_DTS - DTS (13)
    chan: 2 - Stereo
    samp: 48000 Hz
    rate: 1509 kbps (1509.11)
    dura: 01: 06: 35 (3994.99)
    size: 718.70 MB (753608510)
    Track #5: subtitles
    lang: rus - Russian (15)
    type: S_TEXT/UTF8 - SRT (3)
    size: 25.74 KB (26361)
    Track #6: subtitles
    lang: Unknown (1)
    type: S_TEXT/UTF8 - SRT (3)
    size: 18.33 KB (18765)
    Sizes: (check sanity)
    disk: 4.56 GB (4896061679)
    atts: 163.27 KB (167187)
    trac: 4.56 GB (4894436560) based on track size
    bitr: 4.56 GB (4894394277) based on bitrate
    tdif: 1.39 MB (1457932) 0.02%
    bdif: 1.43 MB (1500214) 0.03%


    Онлайн видео Бэтмен и Мистер Фриз: Ниже нуля



    Бэтмен и Мистер Фриз: Ниже нуля/Batman & Mr. Freeze: SubZero (1998) BDRip [H.264/1080p]
    Рейтинг →
     (голосов: 1, оценка 5/5, голосовать можно 1 раз )

    Другие торренты по теме:

  • Бэтмен Будущего (Новый Бэтмен) / Batman Beyond (1999-2001) DVDRemux (сезоны 1-3 из 3, серии 01-52 из 52)
  • Бэтмен возвращается / Batman Returns (1992) BDRip [1080p] ATV
  • Бэтмен и Робин / Batman & Robin (1997) BDRip [1080p] скачать через торрент бесплатно
  • Бэтмен возвращается / Batman Returns (1992) BDRip [1080p] скачать через торрент бесплатно
  • Бэтмен против Робина / Batman vs. Robin (2015) BDRip [720p] скачать через торрент бесплатно
  • Бэтмен против Робина / Batman vs. Robin (2015) BDRip [1080p] скачать через торрент бесплатно
  • Бэтмен против Супермена: На заре справедливости / Batman v Superman: Dawn of Justice (2016) WEBRip [1080р] [Трейлер] [EN] скачать через торрент бесплатно
  • Безграничный Бэтмен: Животные инстинкты / Batman Unlimited: Animal Instincts (2015) BDRip [H.264 / 720p-LQ] [EN / EN Sub] скачать через торрент бесплатно


    • Комментарии (0):

      Информация

      Информация

        Посетители, находящиеся в группе Гости, не могут оставлять комментарии в данной новости.

        ↓ Меню




        ↓ Опрос

        Вы добавили сайт в закладки?
        Да
        Нет


        Популярное