.
Авторизация | Регистрация
bitok.xyz
» » Бэтмэн: Маска фантазма / Batman: Mask of the Phantasm (1993) BDRip [H.264 / 1080p] [MVO] торрент скачать бесплатно


    Бэтмэн: Маска фантазма / Batman: Mask of the Phantasm (1993) BDRip [H.264 / 1080p] [MVO] торрент скачать бесплатно

    Дата: 14-11-2019, 05:00 | .torrent скачали: 3

    Бэтмэн: Маска фантазма / Batman: Mask of the Phantasm (1993) BDRip [H.264 / 1080p] [MVO]Производство: США, Warner Bros. Animation
    Жанр: Рисованная анимация, Приключения
    Режиссер: Брюс Тимм, Эрик Радомски
    Персонажи: Брюс Уэйн (Бэтмен), Андреа Бомонт, Джокер, Альфред

    Описание

    В Готэме появляется новый борец с преступностью — Фантазм, который в отличие от Бэтмена попросту убивает уголовников. От его руки гибнут мафиозные боссы - Чаки Сол и Базз Бронски члены старой банды, орудовавшей в городе еще до появления человека-летучей мыши. Главарем банды был Сальваторе Валестра, именно он является следующей мишенью Фантазма. Идя по следу убийцы, Бэтмен приходит к выводу, что тот связан с событиями из его прошлого.

    Рейтинг MPAA: PG (рекомендуется присутствие родителей)
    Дата мировой премьеры: 25.12.1993
    Продолжительность: 01: 16: 28
    Качество видео: BDRip
    Перевод: Двуголосый профессиональный (Гланц и Королёва)
    Субтитры: Русский, Английский
    Видео: AVC/H.264, 1484x1080, ~7997 kbp
    Аудио 1: AC3, 2 ch, 192 kbps | Русский
    Аудио 2: DTS, 2 ch, 1509 kbps | Английский
    General
    Unique ID : 240272752243537017122674639971621926621 (0xB4C2D94D5B42CDEB9C5EBB3F5315F6DD)
    Complete name : Batman. Mask of the Phantasm_1080p_RU_NNM-Club.mkv
    Format : Matroska
    Format version : Version 4/Version 2
    File size : 5.18 GiB
    Duration : 1 h 16 min
    Overall bit rate : 9 701 kb/s
    Encoded date : UTC 2019-11-12 19: 33: 53
    Writing application : mkvmerge v7.1.0 (\'Good Love\') 64bit built on Jul 27 2014 13: 06: 55
    Writing library : libebml v1.3.0 + libmatroska v1.4.1
    Cover : Yes
    Attachments : Cover.jpg
    Video
    ID : 1
    Format : AVC
    Format/Info : Advanced Video Codec
    Format profile : High@L4
    Format settings : CABAC/2 Ref Frames
    Format settings, CABAC : Yes
    Format settings, ReFrames : 2 frames
    Codec ID : V_MPEG4/ISO/AVC
    Duration : 1 h 16 min
    Bit rate : 8 000 kb/s
    Width : 1 484 pixels
    Height : 1 080 pixels
    Display aspect ratio : 1.374
    Frame rate mode : Constant
    Frame rate : 23.976 (24000/1001) FPS
    Color space : YUV
    Chroma subsampling : 4: 2: 0
    Bit depth : 8 bits
    Scan type : Progressive
    Bits/(Pixel*Frame) : 0.208
    Stream size : 4.27 GiB (82%)
    Writing library : x264 core 129
    Encoding settings : cabac=1/ref=2/deblock=1: 0: 0/analyse=0x3: 0x113/me=hex/subme=6/psy=1/psy_rd=1.00: 0.00/mixed_ref=1/me_range=16/chroma_me=1/trellis=0/8x8dct=1/cqm=0/deadzone=21, 11/fast_pskip=1/chroma_qp_offset=-2/threads=8/lookahead_threads=1/sliced_threads=0/nr=0/decimate=1/interlaced=0/bluray_compat=0/constrained_intra=0/bframes=0/weightp=2/keyint=250/keyint_min=25/scenecut=40/intra_refresh=0/rc_lookahead=40/rc=2pass/mbtree=1/bitrate=8000/ratetol=1.0/qcomp=0.60/qpmin=10/qpmax=51/qpstep=4/cplxblur=20.0/qblur=0.5/ip_ratio=1.41/aq=1: 1.00
    Default : Yes
    Forced : No
    Audio #1
    ID : 2
    Format : AC-3
    Format/Info : Audio Coding 3
    Codec ID : A_AC3
    Duration : 1 h 16 min
    Bit rate mode : Constant
    Bit rate : 192 kb/s
    Channel(s) : 2 channels
    Channel positions : Front: L R
    Sampling rate : 48.0 kHz
    Frame rate : 31.250 FPS (1536 SPF)
    Bit depth : 16 bits
    Compression mode : Lossy
    Stream size : 105 MiB (2%)
    Title : DVO (Гланц и Королёва)
    Language : Russian
    Service kind : Complete Main
    Default : Yes
    Forced : No
    Audio #2
    ID : 3
    Format : DTS
    Format/Info : Digital Theater Systems
    Codec ID : A_DTS
    Duration : 1 h 16 min
    Bit rate mode : Constant
    Bit rate : 1 509 kb/s
    Channel(s) : 2 channels
    Channel positions : Front: L R
    Sampling rate : 48.0 kHz
    Frame rate : 93.750 FPS (512 SPF)
    Bit depth : 24 bits
    Compression mode : Lossy
    Stream size : 825 MiB (16%)
    Title : Original
    Language : English
    Default : No
    Forced : No
    Text #1
    ID : 4
    Format : UTF-8
    Codec ID : S_TEXT/UTF8
    Codec ID/Info : UTF-8 Plain Text
    Duration : 1 h 9 min
    Bit rate : 74 b/s
    Count of elements : 571
    Stream size : 38.2 KiB (0%)
    Language : Russian
    Default : No
    Forced : No
    Text #2
    ID : 5
    Format : UTF-8
    Codec ID : S_TEXT/UTF8
    Codec ID/Info : UTF-8 Plain Text
    Duration : 1 h 9 min
    Bit rate : 46 b/s
    Count of elements : 958
    Stream size : 23.6 KiB (0%)
    Language : English
    Default : No
    Forced : No

    File: Batman. Mask of the Phantasm_1080p_RU_NNM-Club.mkv
    Duration: 01: 16: 28 (4587.62)
    Track #1: video
    lang: und (1)
    codc: V_MPEG4/ISO/AVC - H264/AVC (22)
    reso: 1484x1080 - Unknown (aka not common)
    fram: 23.976 fps
    rate: 7997 kbps (7997.17)
    dura: 01: 16: 28 (4587.54)
    size: 4.27 GB (4585918045)
    Track #2: audio (DVO (Гланц и Королёва))
    lang: rus - Russian (15)
    codc: A_AC3 - AC3 (2)
    chan: 2 - Stereo
    samp: 48000 Hz
    rate: 192 kbps (192.04)
    dura: 01: 16: 28 (4587.52)
    size: 105.02 MB (110122130)
    Track #3: audio (Original)
    lang: Unknown (1)
    codc: A_DTS - DTS (13)
    chan: 2 - Stereo
    samp: 48000 Hz
    rate: 1509 kbps (1509.12)
    dura: 01: 16: 28 (4587.53)
    size: 825.30 MB (865392286)
    Track #4: subtitles
    lang: rus - Russian (15)
    type: S_TEXT/UTF8 - SRT (3)
    size: 38.22 KB (39134)
    Track #5: subtitles
    lang: Unknown (1)
    type: S_TEXT/UTF8 - SRT (3)
    size: 23.63 KB (24192)
    Sizes: (check sanity)
    disk: 5.18 GB (5563162251)
    atts: 102.40 KB (104856)
    trac: 1.18 GB (1266528491) based on track size
    bitr: 5.18 GB (5561434757) based on bitrate
    tdif: 4.00 GB (4296528904) 77.23%
    bdif: 1.55 MB (1622637) 0.02%


    Онлайн видео Бэтмэн: Маска фантазма



    Бэтмэн: Маска фантазма/Batman: Mask of the Phantasm (1993) BDRip [H.264/1080p] [MVO]
    Рейтинг →
     (голосов: 1, оценка 5/5, голосовать можно 1 раз )

    Другие торренты по теме:

  • Бэтмэн / Batman (1989) BDRip [1080p] ATV
  • Бэтмэн / Batman (1989) BDRip [1080p] скачать через торрент бесплатно


    • Комментарии (0):

      Информация

      Информация

        Посетители, находящиеся в группе Гости, не могут оставлять комментарии в данной новости.

        ↓ Меню




        ↓ Опрос

        Вы добавили сайт в закладки?
        Да
        Нет


        Популярное

        Малышарики (2015-2019) WEB-DL [H.264 / 1080p-LQ] (серии 1-154 из 208) [Обновляемая]

        (скачиваний: 106)
        Футурама / Futurama (1999-2013) DVDRip (7 Сезонов, 140 серии) скачать через торрент бесплатно

        (скачиваний: 102)
        Рик и Морти / Rick and Morty (2015) WEB-DL [H.264 / 1080p] (Сезон 2, серии 1-10 из 10) Сыендук [EN / RU Sub] скачать через торрент бесплатно

        (скачиваний: 64)
        Жила-была царевна (2015-2019) WEB-DLRip [H.264 / 720p-LQ] (сезон 1, серии 1-18 из 26) [Обновляемая]

        (скачиваний: 58)
        Металионы / Metalions (2018-2019) WEB-DLRip [H.264 / 720p-LQ] (сезон 1, серии 1-52 из 52) [Обновляемая]

        (скачиваний: 47)
        В гостях у сказки (сборник 56 фильмов) (1939-2009) DVDRip

        (скачиваний: 42)
        Рик и Морти / Rick and Morty (2013) BDRip [H.264 / 720p-LQ] (сезон 1, серии 1-11 из 11) Сыендук

        (скачиваний: 42)
        Рик и Морти / Rick and Morty (2013) BDRip [H.264 / 1080p] (Сезон 1, серии 1-11 из 11) Сыендук [EN Sub] скачать через торрент бесплатно

        (скачиваний: 41)
        Три кота (2018) WEB-DLRip [H.264 / 720p-LQ] (сезон 3, серии 105-106 из 156)

        (скачиваний: 38)
        Королевская академия / Regal Academy (2016) SATRip [H.264] (Сезон 1, 26 серий из 26) [UKR]

        (скачиваний: 25)