.
Авторизация | Регистрация
bitok.xyz
» » В поисках капитана Гранта (1985) DVDRemux торрент скачать бесплатно


    В поисках капитана Гранта (1985) DVDRemux торрент скачать бесплатно

    Дата: 14-11-2019, 05:00 | .torrent скачали: 0

    В поисках капитана Гранта (1985) DVDRemuxПроизводство: СССР-Болгария
    Жанр: Приключения
    Режиссер: Станислав Говорухин

    Актеры
    Владимир Смирнов, Лембит Ульфсак, Марина Влади, Николай Ерёменко мл., Тамара Акулова, Олег Штефанко, Руслан Курашов, Галина Струтинская, Анатолий Рудаков, Борис Хмельницкий

    Описание
    По роману Жюля Верна Дети капитана Гранта. Капитан Грант пустился в опасное плавание, чтобы основать вольное шотландское поселение на островах Тихого океана. Его корабль терпит крушение и лишь полуразмытая записка в бутылке доносит обрывочные сведения о Гранте. Лорд Гленарван на свой страх и риск отправляется на поиски, взяв с собой детей капитана - Мэри и Роберта. Путь отважных путешественников лежит через острова Атлантики, горы и пампасы Новой Зеландии и Австралии, просторы Тихого океана, где их поджидают всевозможные приключения.

    Возраст: 12+ (зрителям, достигшим 12 лет)
    Дата премьеры мир: 13 марта 1986
    Дата выхода DVD релиза: 12 марта 2009, Мьюзик-Трейд
    Релиз от: almikl ®
    Продолжительность: 01: 04: 39 + 01: 04: 30 + 01: 03: 43 + 01: 03: 25 +01: 03: 44 + 01: 05: 10 + 01: 13: 09
    Качество видео: DVDRemux
    Субтитры: Отсутствуют
    Реклама: Отсутствует
    Видео: MPEG-2, 720x576@768x576, ~4500 Kbps
    Аудио: AC3, 6 ch, 448 Kbps
    Общее
    Уникальный идентификатор : 105629951889447406207026707919714629421 (0x4F7796B77493F2D0C98A1A8D15E3B72D)
    Полное имя : E01.В поисках капитана гранта.1985.DVDRemux.almikl.nnmclub.mkv
    Формат : Matroska
    Версия формата : Version 2
    Размер файла : 2, 28 Гбайт
    Продолжительность : 1 ч. 4 м.
    Режим общего битрейта : Переменный
    Общий поток : 5049 Кбит/сек
    Дата кодирования : UTC 2019-10-28 09: 36: 52
    Программа кодирования : MakeMKV v1.14.5 win(x64-release)
    Библиотека кодирования : libmakemkv v1.14.5 (1.3.5/1.4.7) win(x64-release)
    Видео
    Идентификатор : 1
    OriginalSourceMedium_ID/String : 224 (0xE0)
    Формат : MPEG Video
    Версия формата : Version 2
    Профиль формата : Main@Main
    Настройки формата : CustomMatrix/BVOP
    Параметр BVOP формата : Да
    Параметр матрицы формата : Выборочная
    Параметр GOP формата : M=3, N=12
    Структура изображения : Frame
    Идентификатор кодека : V_MPEG2
    Идентификатор кодека/Информация : MPEG 1 or 2 Video
    Продолжительность : 1 ч. 4 м.
    Вид битрейта : Переменный
    Битрейт : 4596 Кбит/сек
    Максимальный битрейт : 8500 Кбит/сек
    Ширина : 720 пикселей
    Высота : 576 пикселей
    Соотношение сторон : 4: 3
    Режим частоты кадров : Постоянный
    Частота кадров : 25, 000 кадров/сек
    Стандарт вещания : PAL
    Цветовое пространство : YUV
    Субдискретизация насыщенности : 4: 2: 0
    Битовая глубина : 8 бит
    Тип развёртки : Чересстрочная
    Порядок развёртки : Верхнее поле первое
    Метод сжатия : С потерями
    Бит/(Пиксели*Кадры) : 0.443
    Временной код первого кадра : 00: 00: 00: 00
    Оригинал временного кода : Group of pictures t_head
    GOP, открыто/закрыто : Открыто
    GOP, открыто/закрыто на первом кадре : Закрыто
    Размер потока : 2, 08 Гбайт (91%)
    Язык : English
    Default : Нет
    Forced : Нет
    Носитель оригинала : DVD-Video
    Аудио
    Идентификатор : 2
    OriginalSourceMedium_ID/String : 189 (0xBD)128 (0x80)
    Формат : AC-3
    Формат/Информация : Audio Coding 3
    Коммерческое название : Dolby Digital
    Идентификатор кодека : A_AC3
    Продолжительность : 1 ч. 4 м.
    Вид битрейта : Постоянный
    Битрейт : 448 Кбит/сек
    Каналы : 6 каналов
    ChannelLayout : L R C LFE Ls Rs
    Частота : 48, 0 КГц
    Частота кадров : 31, 250 кадров/сек (1536 SPF)
    Метод сжатия : С потерями
    Задержка видео : 402 мс.
    Размер потока : 207 Мбайт (9%)
    Заголовок : Surround 5.1
    Язык : Russian
    ServiceKind/String : Complete Main
    Default : Да
    Forced : Нет
    Носитель оригинала : DVD-Video
    Меню
    00: 00: 00.080 : en: Chapter 01
    00: 02: 41.000 : en: Chapter 02
    00: 08: 17.120 : en: Chapter 03
    00: 14: 14.600 : en: Chapter 04
    00: 20: 43.160 : en: Chapter 05
    00: 27: 14.840 : en: Chapter 06
    00: 32: 44.360 : en: Chapter 07
    00: 38: 29.120 : en: Chapter 08
    00: 40: 53.480 : en: Chapter 09
    00: 46: 07.160 : en: Chapter 10
    00: 54: 54.080 : en: Chapter 11
    00: 58: 24.440 : en: Chapter 12

    Скриншоты для ознакомления



    Все одноименные релизы в Клубе
    Время раздачи: 24/7 (до появления первых 3-5 скачавших)

    Онлайн видео Бэтмэн: Маска фантазма



    В поисках капитана Гранта (1985) DVDRemux
    Рейтинг →
     (голосов: 1, оценка 4/5, голосовать можно 1 раз )

    Другие торренты по теме:

  • В поисках капитана Гранта (1985) WEB-DLRip [H.264]
  • В поисках потерпевших кораблекрушение / Дети капитана Гранта / In Search of the Castaways (1962) DVDRip [H.264] [VO]


    • Комментарии (0):

      Информация

      Информация

        Посетители, находящиеся в группе Гости, не могут оставлять комментарии в данной новости.

        ↓ Меню




        ↓ Опрос

        Вы добавили сайт в закладки?
        Да
        Нет


        Популярное