.
Авторизация | Регистрация
bitok.xyz
» » Побег из джунглей / Xiong chu mo: Yuan shi shi dai / Boonie Bears: Blast Into the Past (2019) WEB-DL [H.264 / 1080p-LQ] торрент скачать бесплатно


    Побег из джунглей / Xiong chu mo: Yuan shi shi dai / Boonie Bears: Blast Into the Past (2019) WEB-DL [H.264 / 1080p-LQ] торрент скачать бесплатно

    Дата: 15-11-2019, 05:00 | .torrent скачали: 5

    Побег из джунглей / Xiong chu mo: Yuan shi shi dai / Boonie Bears: Blast Into the Past (2019) WEB-DL [H.264 / 1080p-LQ]Производство: Китай/Fantawild Pictures
    Жанр: Мультфильм, комедия, фантастика
    Режиссер: Линь Хуэйда, Дин Лян

    Описание

    Во время экскурсии в древнюю пещеру медведи Брайр и Брэмбл и их друг-дровосек Вик внезапно оказываются в настоящем доисторическом прошлом.
    Чтобы вернуться назад, им придется совершить большое путешествие во времени и пережить невероятные приключения: столкнуться с огромными хищными птицами, гигантскими черепахами и многочисленными неведомыми и опасными обитателями первобытных джунглей. Но главное — найти новых друзей и дорогу домой!

    Возраст: 0+ (для любой зрительской аудитории)
    Дата мировой премьеры: 5 февраля 2019
    Дата российской премьеры: 19 сентября 2019, Экспонента
    Релиз от: BLUEBIRD
    Продолжительность: 01: 29: 28
    Качество видео: WEB-DL
    Перевод: Дублированный (iTunes)
    Субтитры: Отсутствуют
    Видео: AVC/H.264, 1920x804, 4415 Kbps
    Аудио: AC3, 6 ch, 384 Kbps - Русский дубляжGeneral
    Unique ID : 176356767762693807419750230798945143520 (0x84AD13F758991B8C929A6808B6BACAE0)
    Complete name : POBEG_iz_JUNGLEJ_2019_WEB-DL_1080p-BLUEBIRD.mkv
    Format : Matroska
    Format version : Version 4
    File size : 3.06 GiB
    Duration : 1 h 29 min
    Overall bit rate : 4 897 kb/s
    Movie name : POBEG_iz_JUNGLEJ_2019_WEB-DL_1080p-BLUEBIRD
    Encoded date : UTC 2019-11-13 19: 28: 55
    Writing application : mkvmerge v6.9.1 (\'Blue Panther\') 32bit built on Apr 18 2014 18: 15: 44
    Writing library : libebml v1.3.0 + libmatroska v1.4.1
    Cover : Yes
    Attachments : cover.png
    Video
    ID : 1
    Format : AVC
    Format/Info : Advanced Video Codec
    Format profile : High@L4
    Format settings : CABAC/5 Ref Frames
    Format settings, CABAC : Yes
    Format settings, Reference : 5 frames
    Codec ID : V_MPEG4/ISO/AVC
    Duration : 1 h 29 min
    Bit rate : 4 415 kb/s
    Width : 1 920 pixels
    Height : 804 pixels
    Display aspect ratio : 2.40: 1
    Frame rate mode : Constant
    Frame rate : 24.000 FPS
    Color space : YUV
    Chroma subsampling : 4: 2: 0
    Bit depth : 8 bits
    Scan type : Progressive
    Bits/(Pixel*Frame) : 0.119
    Stream size : 2.76 GiB (90%)
    Title : POBEG_iz_JUNGLEJ_2019_WEB-DL_1080p-BLUEBIRD
    Language : English
    Default : Yes
    Forced : No
    Color range : Limited
    Color primaries : BT.709
    Transfer characteristics : BT.709
    Matrix coefficients : BT.709
    Audio
    ID : 2
    Format : AC-3
    Format/Info : Audio Coding 3
    Commercial name : Dolby Digital
    Codec ID : A_AC3
    Duration : 1 h 29 min
    Bit rate mode : Constant
    Bit rate : 384 kb/s
    Channel(s) : 6 channels
    Channel layout : L R C LFE Ls Rs
    Sampling rate : 48.0 kHz
    Frame rate : 31.250 FPS (1536 SPF)
    Bit depth : 16 bits
    Compression mode : Lossy
    Stream size : 246 MiB (8%)
    Title : DUB DD 5.1 @ 384 kbps (iTunes)
    Language : Russian
    Service kind : Complete Main
    Default : Yes
    Forced : No
    Menu
    00: 00: 00.000 : en: Глава 1
    00: 08: 48.416 : en: Глава 2
    00: 17: 45.374 : en: Глава 3
    00: 26: 24.249 : en: Глава 4
    00: 35: 01.040 : en: Глава 5
    00: 43: 11.415 : en: Глава 6
    00: 51: 37.706 : en: Глава 7
    00: 59: 57.747 : en: Глава 8
    01: 08: 30.830 : en: Глава 9
    01: 17: 00.163 : en: Глава 10

    Скриншоты для ознакомления




    Все одноименные релизы в Клубе
    Время раздачи: 24/7 (круглосуточно) (до появления первых 3-5 скачавших)

    Онлайн видео Побег из джунглей



    Побег из джунглей/Xiong chu mo: Yuan shi shi dai/Boonie Bears: Blast Into the Past (2019) WEB-DL [H.264/1080p-LQ]
    Рейтинг →
     (голосов: 1, оценка 4/5, голосовать можно 1 раз )

    Другие торренты по теме:

  • Prison Break: The Conspiracy / Побег. Теория заговора (2010) [PS3] [EUR] 3.15 [Cobra ODE / E3 ODE PRO ISO] [License] [En]
  • Побег из тюрьмы: Финальный побег / Prison Break: The Final Break (2009) BDRip [H.264 / 720p]
  • Побег из тюрьмы: Коллекция / Prison Break: Collection (2005 - 2009) BDRip 720p [Все сезоны + Финальный побег]
  • Побег: Коллекция / Prison Break: Collection (2005-2009) BDRip [H.264 / 1080p] (Все сезоны + Финальный Побег)
  • Пленница. Побег / Flukt (2012) HDRip скачать через торрент бесплатно
  • Побег / La carapate (1978) BDRip [720p]
  • Беломорканал - Побег (2002) [FLAC|Lossless]<Шансон> скачать через торрент бесплатно
  • Лего. Новые хроники Йоды: Побег из храма джедаев / LEGO. The New Yoda Chronicles: Escape from the Jedi Temple (2014) SATRip


    • Комментарии (0):

      Информация

      Информация

        Посетители, находящиеся в группе Гости, не могут оставлять комментарии в данной новости.

        ↓ Меню




        ↓ Опрос

        Вы добавили сайт в закладки?
        Да
        Нет


        Популярное