.
Авторизация | Регистрация
bitok.xyz
» » Клаус / Klaus (2019) WEB-DLRip торрент скачать бесплатно


    Клаус / Klaus (2019) WEB-DLRip торрент скачать бесплатно

    Дата: 17-11-2019, 05:00 | .torrent скачали: 11

    Клаус / Klaus (2019) WEB-DLRipПроизводство: Испания/The SPA Studios, Aniventure, Atresmedia Cine
    Жанр: Мультфильм, семейный, фэнтези, комедия, приключения
    Режиссер: Серджо Паблос

    Описание

    Молодого почтальона отправляют на работу в заснеженную деревушку с крайне недружелюбными и негостеприимными жителями. Там он встречает странного создателя игрушек, и между ними завязывается необычная дружба.

    Рейтинг MPAA: PG (рекомендуется присутствие родителей)
    Дата мировой премьеры: 8 ноября 2019
    Релиз от: NNMClub
    Продолжительность: 01: 38: 03
    Качество видео: WEB-DLRip
    Перевод: Дублированный (Невафильм)
    Субтитры: Русские (Forced, Full), английские (Full, SDH) - отдельными файлами
    Видео: XviD, 720x384, ~1755 kbps
    Аудио 1: AC-3, 6 ch, 384 Kbps - Русский дубляж
    Аудио 2: AC-3, 6 ch, 384 Kbps - Английский (отдельным файлом)General
    Complete name : Klaus.2019.NF.WEB-DLRip.NNMClub.avi
    Format : AVI
    Format/Info : Audio Video Interleave
    File size : 1.47 GiB
    Duration : 1 h 38 min
    Overall bit rate : 2 148 kb/s
    Writing application : Lavf58.29.100
    Writing library : VirtualDub build 35491/release
    Video
    ID : 0
    Format : MPEG-4 Visual
    Format profile : Advanced Simple@L5
    Format settings : BVOP2
    Format settings, BVOP : 2
    Format settings, QPel : No
    Format settings, GMC : No warppoints
    Format settings, Matrix : Default (MPEG)
    Codec ID : XVID
    Codec ID/Hint : XviD
    Duration : 1 h 38 min
    Bit rate : 1 755 kb/s
    Width : 720 pixels
    Height : 384 pixels
    Display aspect ratio : 1.85: 1
    Frame rate : 24.000 FPS
    Color space : YUV
    Chroma subsampling : 4: 2: 0
    Bit depth : 8 bits
    Scan type : Progressive
    Compression mode : Lossy
    Bits/(Pixel*Frame) : 0.264
    Stream size : 1.20 GiB (82%)
    Writing library : XviD 67
    Audio
    ID : 1
    Format : AC-3
    Format/Info : Audio Coding 3
    Commercial name : Dolby Digital
    Codec ID : 2000
    Duration : 1 h 38 min
    Bit rate mode : Constant
    Bit rate : 384 kb/s
    Channel(s) : 6 channels
    Channel layout : L R C LFE Ls Rs
    Sampling rate : 48.0 kHz
    Frame rate : 31.250 FPS (1536 SPF)
    Compression mode : Lossy
    Stream size : 269 MiB (18%)
    Alignment : Aligned on interleaves
    Interleave, duration : 42 ms (1.00 video frame)
    Interleave, preload duratio : 512 ms
    Service kind : Complete Main
    -------------------------------------------------------------------------------------------------
    General
    Complete name : Klaus.2019.NF.WEB-DLRip.NNMClub-EN.ac3
    Format : AC-3
    Format/Info : Audio Coding 3
    Commercial name : Dolby Digital
    File size : 269 MiB
    Duration : 1 h 38 min
    Overall bit rate mode : Constant
    Overall bit rate : 384 kb/s
    Audio
    Format : AC-3
    Format/Info : Audio Coding 3
    Commercial name : Dolby Digital
    Duration : 1 h 38 min
    Bit rate mode : Constant
    Bit rate : 384 kb/s
    Channel(s) : 6 channels
    Channel layout : L R C LFE Ls Rs
    Sampling rate : 48.0 kHz
    Frame rate : 31.250 FPS (1536 SPF)
    Compression mode : Lossy
    Stream size : 269 MiB (100%)
    Service kind : Complete Main


    Онлайн видео Клаус



    Клаус/Klaus (2019) WEB-DLRip
    Рейтинг →
     (голосов: 1, оценка 5/5, голосовать можно 1 раз )

    Другие торренты по теме:

  • Клаус / Klaus (2019) WEB-DL [H.264 / 1080p-LQ]
  • Клаус / Klaus (2019) WEB-DLRip [H.264]
  • Клаус / Klaus (2019) WEB-DLRip [H.264]


    • Комментарии (0):

      Информация

      Информация

        Посетители, находящиеся в группе Гости, не могут оставлять комментарии в данной новости.

        ↓ Меню




        ↓ Опрос

        Вы добавили сайт в закладки?
        Да
        Нет


        Популярное