.
Авторизация | Регистрация
bitok.xyz
» » Поп Америка / American Pop (1981) WEB-DL [H.264 / 1080p] торрент скачать бесплатно


    Поп Америка / American Pop (1981) WEB-DL [H.264 / 1080p] торрент скачать бесплатно

    Дата: 17-11-2019, 05:00 | .torrent скачали: 0

    Поп Америка / American Pop (1981) WEB-DL [H.264 / 1080p]Производство: США/Aspen Productions, Bakshi Productions, Columbia Pictures Corporation, Polyc International BV
    Жанр: Мультфильм, Драма, История, Музыка
    Режиссер: Ральф Бакши

    Описание

    Драматическая история четырех поколений еврейской семьи музыкантов из России, показанная параллельно с историей Американской популярной музыки 20-го столетия, в сопровождении Боба Дилана, Лу Рида, Фила Силверса и др.

    Возраст: 18+ (зрителям, достигшим 18 лет. запрещено для детей)
    Рейтинг MPAA: R (лицам до 17 лет обязательно присутствие взрослого)
    Релиз от: PRAGMA
    Продолжительность: 01: 35: 44
    Качество видео: WEB-DL
    Перевод: Дублированный
    Субтитры: английские
    Видео: AVC/H.264, 1920x1080, ~14, 2 Mbps
    Аудио 1: E-AC3, 2 ch, 224 Kbps (английский)
    Аудио 2: AC3, 2 ch, 192 Kbps (русский)
    Общее
    Уникальный идентификатор : 116593089838969361940306469759271680954 (0x57B703264940DD176DDDD700FB99BBBA)
    Полное имя : E: VideoПоп Америка (American Pop).mkv
    Формат : Matroska
    Версия формата : Version 4/Version 2
    Размер файла : 9, 76 Гбайт
    Продолжительность : 1 ч. 35 м.
    Общий поток : 14, 6 Мбит/сек
    Название фильма : Поп Америка/American Pop
    Кодирование произвёл : PRAGMA
    Дата выпуска : 1981
    Дата кодирования : UTC 2019-11-10 11: 10: 43
    Программа кодирования : mkvmerge v34.0.0 (\'Sight and Seen\') 64-bit
    Библиотека кодирования : libebml v1.3.7 + libmatroska v1.5.0
    Обложка : Yes
    Attachments : cover.jpg
    Released by : Buba5473 for NNM-Club
    Видео
    Идентификатор : 1
    Формат : AVC
    Формат/Информация : Advanced Video Codec
    Профиль формата : High@L4
    Параметр CABAC формата : Да
    Параметр ReFrames формата : 4 кадра
    Идентификатор кодека : V_MPEG4/ISO/AVC
    Продолжительность : 1 ч. 35 м.
    Битрейт : 14, 2 Мбит/сек
    Ширина : 1920 пикселей
    Высота : 1080 пикселей
    Соотношение сторон : 16: 9
    Режим частоты кадров : Постоянный
    Частота кадров : 23, 976 (24000/1001) кадра/сек
    Цветовое пространство : YUV
    Субдискретизация насыщенности : 4: 2: 0
    Битовая глубина : 8 бит
    Тип развёртки : Прогрессивная
    Бит/(Пиксели*Кадры) : 0.285
    Размер потока : 9, 48 Гбайт (97%)
    Заголовок : American.Pop.1981.1080p.AMZN.WEB-DL.DDP2.0.H.264-PRAGMA
    Default : Да
    Forced : Нет
    Color range : Limited
    Основные цвета : BT.709
    Характеристики трансфера : BT.709
    Коэффициенты матрицы : BT.709
    Аудио #1
    Идентификатор : 2
    Формат : E-AC-3
    Формат/Информация : Enhanced Audio Coding 3
    Параметр Endianness формата : Big
    Идентификатор кодека : A_EAC3
    Продолжительность : 1 ч. 35 м.
    Вид битрейта : Постоянный
    Битрейт : 224 Кбит/сек
    Каналы : 2 канала
    Расположение каналов : Front: L R
    Частота : 48, 0 КГц
    Частота кадров : 187, 500 кадров/сек (256 SPF)
    Метод сжатия : С потерями
    Размер потока : 153 Мбайт (2%)
    Заголовок : und
    Язык : English
    Service kind : Complete Main
    Default : Нет
    Forced : Нет
    Аудио #2
    Идентификатор : 4
    Формат : AC-3
    Формат/Информация : Audio Coding 3
    Параметр Endianness формата : Big
    Идентификатор кодека : A_AC3
    Продолжительность : 1 ч. 35 м.
    Вид битрейта : Постоянный
    Битрейт : 192 Кбит/сек
    Каналы : 2 канала
    Расположение каналов : Front: L R
    Частота : 48, 0 КГц
    Частота кадров : 31, 250 кадров/сек (1536 SPF)
    Битовая глубина : 16 бит
    Метод сжатия : С потерями
    Задержка видео : 28 мс.
    Размер потока : 131 Мбайт (1%)
    Заголовок : Перевод: Профессиональный (дублированный)
    Язык : Russian
    Service kind : Complete Main
    Default : Да
    Forced : Нет
    Текст
    Идентификатор : 3
    Формат : UTF-8
    Идентификатор кодека : S_TEXT/UTF8
    Идентификатор кодека/Информация : UTF-8 Plain Text
    Продолжительность : 1 ч. 34 м.
    Битрейт : 52 бит/сек
    Count of elements : 1107
    Размер потока : 36, 4 Кбайт (0%)
    Заголовок : English CC
    Язык : English
    Default : Да
    Forced : Нет
    Меню
    00: 00: 00.000 : en: Start
    00: 03: 33.000 : en: Aneynu
    00: 05: 35.000 : en: I Don\'t Care
    00: 07: 58.000 : en: Maple Leaf Rag
    00: 12: 05.000 : en: Smiles
    00: 14: 21.000 : en: Over There
    00: 16: 26.000 : en: Swanee
    00: 19: 20.000 : en: Look for the Silver Lining
    00: 22: 59.000 : en: Charleston
    00: 24: 57.000 : en: Bill
    00: 27: 15.000 : en: Sweet Georgia Brown
    00: 29: 50.000 : en: Our Love is Here to Stay
    00: 33: 55.000 : en: Sing, Sing, Sing
    00: 35: 59.000 : en: Lilli Marlene
    00: 41: 09.000 : en: Take Five
    00: 43: 39.000 : en: Turn Me Loose
    00: 47: 28.000 : en: You Send Me
    00: 50: 56.000 : en: This Train
    00: 54: 09.000 : en: California Dreamin\'
    01: 00: 00.000 : en: Somebody to Love
    01: 04: 05.000 : en: People are Strange
    01: 05: 42.000 : en: Up, Up, and Away
    01: 07: 34.000 : en: Purple Haze
    01: 11: 01.000 : en: Summertime
    01: 15: 38.000 : en: I\'m Waiting for the Man
    01: 22: 01.000 : en: Hell is for Children
    01: 27: 08.000 : en: Night Moves
    01: 29: 07.000 : en: Blue Suede Shoes
    XMP
    Xmp.video.FileName : E: VideoПоп Америка (American Pop).mkv
    Xmp.video.FileSize : -9.53674e-007
    Xmp.video.MimeType : video/matroska
    Xmp.video.EBMLVersion : 1
    Xmp.video.EBMLReadVersion : 1
    Xmp.video.DocType : matroska
    Xmp.video.DocTypeVersion : 4
    Xmp.video.DocTypeReadVersion : 2
    Xmp.video.TimecodeScale : 0.001
    Xmp.video.MuxingApp : libebml v1.3.7 + libmatroska v1.5.0
    Xmp.video.WritingApp : mkvmerge v34.0.0 (\'Sight and Seen\') 64-bit
    Xmp.video.Duration : 5744096
    Xmp.video.DateUTC : 595077043
    Xmp.video.Title : Поп Америка/American Pop
    Xmp.video.TotalStream : 16
    Xmp.video.TrackLacing : No
    Xmp.video.Codec : V_MPEG4/ISO/AVC
    Xmp.video.FrameRate : 23.976
    Xmp.video.TrackLang : und
    Xmp.video.TrackName : Перевод: ПрофессионаРьный (РґСѓР±Рированный)
    Xmp.video.Width : 1920
    Xmp.video.Height : 1080
    Xmp.audio.DefaultOn : No
    Xmp.audio.Compressor : A_AC3
    Xmp.audio.DefaultDuration : 32000
    Xmp.audio.SampleRate : 48000
    Xmp.audio.ChannelType : Stereo
    Xmp.video.SubTTrackLacing : No
    Xmp.video.SubTCodec : S_TEXT/UTF8
    Xmp.audio.TrackLang : rus
    Xmp.video.AttachFileName : cover.jpg
    Xmp.video.AttachFileMIME : image/jpeg
    Xmp.video.AttachFileUID : -1225619959841372820
    Xmp.video.AttachFileDesc : Cover
    Xmp.video.AspectRatio : 16: 9

    Скриншоты для ознакомления



    Все одноименные релизы в Клубе
    Время раздачи: с 11: 00 до 21: 00 по Новосибирску (UTC +7) (до появления первых 3-5 скачавших)

    Онлайн видео Поп Америка



    Поп Америка/American Pop (1981) WEB-DL [H.264/1080p]
    Рейтинг →
     (голосов: 1, оценка 5/5, голосовать можно 1 раз )

    Другие торренты по теме:

  • Эйр Америка / Air America (1990) BDRip [H.264 / 720р-LQ] скачать через торрент бесплатно
  • Топ Гир Америка / Top Gear America (USA) / Сезон 4. Серии 1-14 из 16 (2013-2014) HDTVRip [Обновляемая] скачать через торрент бесплатно
  • Эйр Америка / Air America (1990) BDRemux [1080p] скачать через торрент бесплатно
  • Юго-западная Америка: От Долины смерти до Великого каньона / Americas Southwest: From Grand Canyon To Death Valley (2012) BDRip [H.264 / 720p]
  • Михаил Задорнов. Неформат 61 (Америка готовит катастрофу в мире!) (2014.10.24) WEB-DLRip скачать через торрент бесплатно
  • Эйр Америка / Air America (1990) BDRip [h.264] [AVO]
  • Мир Наизнанку. Сезон №6. Выпуск №4. Южная (Латинская) Америка (2015.04.19) SATRip скачать через торрент бесплатно
  • Мир Наизнанку. Сезон №6. Выпуск №5. Южная (Латинская) Америка (2015.05.03) SATRip скачать через торрент бесплатно


    • Комментарии (0):

      Информация

      Информация

        Посетители, находящиеся в группе Гости, не могут оставлять комментарии в данной новости.

        ↓ Меню




        ↓ Опрос

        Вы добавили сайт в закладки?
        Да
        Нет


        Популярное