.
Авторизация | Регистрация
bitok.xyz
» » Город героев / Big Hero 6 (2014) BDRip [H.265 / 1080p-LQ] [10-bit] торрент скачать бесплатно


    Город героев / Big Hero 6 (2014) BDRip [H.265 / 1080p-LQ] [10-bit] торрент скачать бесплатно

    Дата: 18-11-2019, 05:00 | .torrent скачали: 0

    Город героев / Big Hero 6 (2014) BDRip [H.265 / 1080p-LQ] [10-bit]Производство: США/FortyFour Studios, Walt Disney Animation Studios, Walt Disney Pictures
    Жанр: мультфильм, фантастика, комедия, семейный, боевик
    Режиссер: Дон Холл, Крис Уильямс

    Описание
    Юный Хиро Хамада — прирожденный изобретатель и гений конструирования роботов. Вместе со старшим братом Тадаши они воплощают в жизнь самые передовые идеи в Техническом университете города будущего Сан-Франсокио. После серии загадочных событий друзья оказываются в центре коварного заговора. Отчаявшись, Хиро решает использовать веселого и добродушного экспериментального робота Бэймакса, перепрограммировав его в неуязвимую боевую машину.

    Возраст: 6+ (зрителям, достигшим 6 лет)
    Рейтинг MPAA: PG (рекомендуется присутствие родителей)
    Релиз от: Mr. Fox (HEVC-CLUB)
    Продолжительность: 01: 41: 52
    Качество видео: BDRip
    Перевод: Дублированный
    Субтитры: Русские (форсированные, полные), украинские (форсированные, полные), английские
    Видео: HEVC/H.265, 1920x804, ~5719 Kbps
    Аудио 1: AC3, 6 ch, 640 Kbps - Русский, дублированный (Лицензия)
    Аудио 2: AC3, 6 ch, 384 Kbps - Украинский, дублированный (iTunes)
    Аудио 3: AC3, 6 ch, 640 Kbps - Английский
    Общее
    Уникальный идентификатор : 52687008071835107083285002318584331576 (0x27A3260E184EE09DF35C706D14ADBD38)
    Полное имя : R: Big Hero 6 (2014) BDRip 1080p HEVC.mkv
    Формат : Matroska
    Версия формата : Version 4/Version 2
    Размер файла : 5, 26 Гбайт
    Продолжительность : 1 ч. 41 м.
    Общий поток : 7386 Кбит/сек
    Название фильма : Big Hero 6 (2014)
    Дата кодирования : UTC 2019-11-16 09: 27: 59
    Программа кодирования : mkvmerge v40.0.0 (\'Old Town Road + Pony\') 64-bit
    Библиотека кодирования : libebml v1.3.9 + libmatroska v1.5.2
    Обложка : Yes
    Attachments : cover.jpg
    Видео
    Идентификатор : 1
    Формат : HEVC
    Формат/Информация : High Efficiency Video Coding
    Профиль формата : Main10@L4.1@High
    Идентификатор кодека : V_MPEGH/ISO/HEVC
    Продолжительность : 1 ч. 41 м.
    Битрейт : 5719 Кбит/сек
    Ширина : 1920 пикселей
    Высота : 804 пикселя
    Соотношение сторон : 2, 40: 1
    Режим частоты кадров : Постоянный
    Частота кадров : 23, 976 (24000/1001) кадра/сек
    Цветовое пространство : YUV
    Субдискретизация насыщенности : 4: 2: 0
    Битовая глубина : 10 бит
    Бит/(Пиксели*Кадры) : 0.155
    Размер потока : 4, 07 Гбайт (77%)
    Библиотека кодирования : x265 3.1.2+1-76650bab70f9: WindowsMSVC 192264 bit 10bit
    Настройки программы : cpuid=1111039/frame-threads=3/numa-pools=12/wpp/no-pmode/no-pme/no-psnr/no-ssim/log-level=2/input-csp=1/input-res=1920x804/interlace=0/total-frames=132264/level-idc=41/high-tier=1/uhd-bd=0/ref=5/no-allow-non-conformance/no-repeat-t_heads/annexb/no-aud/no-hrd/info/hash=0/no-temporal-layers/open-gop/min-keyint=23/keyint=240/gop-lookahead=0/bframes=12/b-adapt=2/b-pyramid/bframe-bias=0/rc-lookahead=60/lookahead-slices=4/scenecut=40/radl=0/no-splice/no-intra-refresh/ctu=32/min-cu-size=8/rect/amp/max-tu-size=32/tu-inter-depth=4/tu-intra-depth=4/limit-tu=1/rdoq-level=2/dynamic-rd=0.00/no-ssim-rd/signhide/no-tskip/nr-intra=0/nr-inter=0/no-constrained-intra/no-strong-intra-smoothing/max-merge=4/limit-refs=2/limit-modes/me=3/subme=7/merange=57/temporal-mvp/weightp/weightb/no-analyze-src-pics/deblock=-3: -3/no-sao/no-sao-non-deblock/rd=6/no-early-skip/no-rskip/no-fast-intra/no-tskip-fast/no-cu-lossless/no-b-intra/no-splitrd-skip/rdpenalty=0/psy-rd=2.00/psy-rdoq=1.00/no-rd-refine/no-lossless/cbqpoffs=0/crqpoffs=0/rc=crf/crf=20.0/qcomp=0.60/qpstep=4/stats-write=0/stats-read=0/vbv-maxrate=50000/vbv-bufsize=50000/vbv-init=0.9/crf-max=0.0/crf-min=0.0/ipratio=1.40/pbratio=1.30/aq-mode=1/aq-strength=1.00/no-cutree/zone-count=0/no-strict-cbr/qg-size=32/no-rc-grain/qpmax=69/qpmin=0/no-const-vbv/sar=1/overscan=0/videoformat=5/range=0/colorprim=1/transfer=1/colormatrix=1/chromaloc=0/display-window=0cll=0, 0/min-luma=0/max-luma=1023/log2-max-poc-lsb=8/vui-timing-info/vui-hrd-info/slices=1/no-opt-qp-pps/no-opt-ref-list-length-pps/no-multi-pass-opt-rps/scenecut-bias=0.05/no-opt-cu-delta-qp/no-aq-motion/no-hdr/no-hdr-opt/no-dhdr10-opt/no-idr-recovery-sei/analysis-reuse-level=5/scale-factor=0/refine-intra=0/refine-inter=0/refine-mv=0/refine-ctu-distortion=0/no-limit-sao/ctu-info=0/no-lowpass-dct/refine-analysis-type=0/copy-pic=1/max-ausize-factor=1.0/no-dynamic-refine/no-single-sei/no-hevc-aq/no-svt/no-field/qp-adaptation-range=1.00
    Default : Да
    Forced : Нет
    Цветовой диапазон : Limited
    Основные цвета : BT.709
    Характеристики трансфера : BT.709
    Коэффициенты матрицы : BT.709
    Аудио #1
    Идентификатор : 2
    Формат : AC-3
    Формат/Информация : Audio Coding 3
    Идентификатор кодека : A_AC3
    Продолжительность : 1 ч. 41 м.
    Вид битрейта : Постоянный
    Битрейт : 640 Кбит/сек
    Каналы : 6 каналов
    Расположение каналов : Front: L C R, Side: L R, LFE
    Частота : 48, 0 КГц
    Частота кадров : 31, 250 кадров/сек (1536 SPF)
    Битовая глубина : 16 бит
    Метод сжатия : С потерями
    Размер потока : 466 Мбайт (9%)
    Заголовок : DUB, Blu-ray CEE
    Язык : Russian
    ServiceKind/String : Complete Main
    Default : Да
    Forced : Нет
    Аудио #2
    Идентификатор : 3
    Формат : AC-3
    Формат/Информация : Audio Coding 3
    Идентификатор кодека : A_AC3
    Продолжительность : 1 ч. 41 м.
    Вид битрейта : Постоянный
    Битрейт : 384 Кбит/сек
    Каналы : 6 каналов
    Расположение каналов : Front: L C R, Side: L R, LFE
    Частота : 48, 0 КГц
    Частота кадров : 31, 250 кадров/сек (1536 SPF)
    Битовая глубина : 16 бит
    Метод сжатия : С потерями
    Размер потока : 280 Мбайт (5%)
    Заголовок : DUB, iTunes
    Язык : Ukrainian
    ServiceKind/String : Complete Main
    Default : Нет
    Forced : Нет
    Аудио #3
    Идентификатор : 4
    Формат : AC-3
    Формат/Информация : Audio Coding 3
    Идентификатор кодека : A_AC3
    Продолжительность : 1 ч. 41 м.
    Вид битрейта : Постоянный
    Битрейт : 640 Кбит/сек
    Каналы : 6 каналов
    Расположение каналов : Front: L C R, Side: L R, LFE
    Частота : 48, 0 КГц
    Частота кадров : 31, 250 кадров/сек (1536 SPF)
    Битовая глубина : 16 бит
    Метод сжатия : С потерями
    Размер потока : 466 Мбайт (9%)
    Заголовок : BD 3D
    Язык : English
    ServiceKind/String : Complete Main
    Default : Нет
    Forced : Нет
    Текст #1
    Идентификатор : 5
    Формат : UTF-8
    Идентификатор кодека : S_TEXT/UTF8
    Идентификатор кодека/Информация : UTF-8 Plain Text
    Продолжительность : 1 ч. 32 м.
    Битрейт : 1 бит/сек
    ElementCount : 22
    Размер потока : 893 байт (0%)
    Заголовок : Forced
    Язык : Russian
    Default : Да
    Forced : Да
    Текст #2
    Идентификатор : 6
    Формат : UTF-8
    Идентификатор кодека : S_TEXT/UTF8
    Идентификатор кодека/Информация : UTF-8 Plain Text
    Продолжительность : 1 ч. 40 м.
    Битрейт : 76 бит/сек
    ElementCount : 1243
    Размер потока : 55, 8 Кбайт (0%)
    Язык : Russian
    Default : Нет
    Forced : Нет
    Текст #3
    Идентификатор : 7
    Формат : UTF-8
    Идентификатор кодека : S_TEXT/UTF8
    Идентификатор кодека/Информация : UTF-8 Plain Text
    Продолжительность : 1 ч. 32 м.
    Битрейт : 1 бит/сек
    ElementCount : 22
    Размер потока : 883 байт (0%)
    Заголовок : Forced
    Язык : Ukrainian
    Default : Нет
    Forced : Нет
    Текст #4
    Идентификатор : 8
    Формат : UTF-8
    Идентификатор кодека : S_TEXT/UTF8
    Идентификатор кодека/Информация : UTF-8 Plain Text
    Продолжительность : 1 ч. 40 м.
    Битрейт : 76 бит/сек
    ElementCount : 1280
    Размер потока : 56, 3 Кбайт (0%)
    Язык : Ukrainian
    Default : Нет
    Forced : Нет
    Текст #5
    Идентификатор : 9
    Формат : UTF-8
    Идентификатор кодека : S_TEXT/UTF8
    Идентификатор кодека/Информация : UTF-8 Plain Text
    Продолжительность : 1 ч. 39 м.
    Битрейт : 48 бит/сек
    ElementCount : 1325
    Размер потока : 35, 3 Кбайт (0%)
    Язык : English
    Default : Нет
    Forced : Нет
    Меню
    00: 00: 00.000 : en: 1. Hustle
    00: 07: 15.685 : en: 2. Nerd School
    00: 14: 37.835 : en: 3. Showcase
    00: 21: 49.183 : en: 4. Tragedy
    00: 24: 32.888 : en: 5. A New Friend
    00: 29: 34.731 : en: 6. Being Helpful
    00: 36: 58.091 : en: 7. Upgrade
    00: 44: 18.322 : en: 8. The Chase
    00: 50: 49.088 : en: 9. Fred\'s House
    00: 54: 33.020 : en: 10. Training
    01: 00: 44.140 : en: 11. Secret Lair
    01: 07: 12.612 : en: 12. Big Reveal
    01: 11: 54.644 : en: 13. Putting It All Together
    01: 16: 26.665 : en: 14. Saving The Day!
    01: 24: 44.162 : en: 15. The Portal
    01: 31: 52.757 : en: 16. End Credits


    Онлайн видео Город героев



    Город героев/Big Hero 6 (2014) BDRip [H.265/1080p-LQ] [10-bit]
    Рейтинг →
     (голосов: 1, оценка 4/5, голосовать можно 1 раз )

    Другие торренты по теме:

  • Город героев / Big Hero 6 (2014) CAMRip скачать через торрент бесплатно
  • Город героев / Big Hero 6 (2014) CamRip *PROPER*
  • Город героев / Big Hero 6 (2014) CamRip *PROPER*
  • Henry Jackman - Город героев / Big Hero 6 (Original Score) (2014) [MP3|320 кб / с]<Soundtrack> скачать через торрент бесплатно
  • Город героев / Big Hero 6 (2014) DVDScr [Line] скачать через торрент бесплатно
  • Город героев / Big Hero 6 (2014) DVDScr [Line] скачать через торрент бесплатно
  • Город героев / Big Hero 6 (2014) DVDScr [Line] скачать через торрент бесплатно
  • Город героев / Big Hero 6 (2014) WEB-DL [H.264 / 720p-LQ] [Line]


    • Комментарии (0):

      Информация

      Информация

        Посетители, находящиеся в группе Гости, не могут оставлять комментарии в данной новости.

        ↓ Меню




        ↓ Опрос

        Вы добавили сайт в закладки?
        Да
        Нет


        Популярное