.
Авторизация | Регистрация
bitok.xyz
» » Kidou Senshi Gundam: Twilight Axis | Mobile Suit Gundam Twilight Axis | Мобильный воин Гандам: Сумеречная ось [2017, Web, 6 из 6] WEBRip 720p 10-bit raw торрент скачать бесплатно


    Kidou Senshi Gundam: Twilight Axis | Mobile Suit Gundam Twilight Axis | Мобильный воин Гандам: Сумеречная ось [2017, Web, 6 из 6] WEBRip 720p 10-bit raw торрент скачать бесплатно

    Дата: 18-11-2019, 05:00 | .torrent скачали: 0

    Kidou Senshi Gundam: Twilight Axis | Mobile Suit Gundam Twilight Axis | Мобильный воин Гандам: Сумеречная ось [2017, Web, 6 из 6] WEBRip 720p 10-bit rawТип: Web
    Жанр: приключения, фантастика, меха
    Продолжительность: 5 эп. по 3 мин. + 1 эп. на 9 мин.
    Количество серий: 6 из 6
    Дата выпуска: c 23.06.2017 по 01.09.2017
    Производство: Sunrise/サンライズ
    Автор оригинала: Томино Ёсиюки
    Режиссер: Ким Се Чун
    Ссылки: World-Art

    Описание

    UC 0096. Правительство Земной Федерации, вновь чувствуя угрозу в технологии психофрейма, под командованием лейтенанта Разведывательного Бюро Мехмета Мерки формирует спецотряд Мастима. Задачей отряда ставится проникновение и исследование части заброшенного астероида Аксис. В группу входят два гражданских лица: Арлетт Алмадж и Дэнтон Хайлег, бывшие инженер и пилот-испытатель Герцогства Зион и Нео-Зиона соответственно. При обследовании предположительно пустого объекта в Аксисе Мастима подвергается атаке новой модели Гандама...
    Язык озвучки: Японский
    Субтитры: Русские, Английские
    Перевод: Джарли + Алекс Миф
    Качество видео: WEBRip
    Видео: AVC (High 10@L5) 10 bit, 1280x720, 23.976 fps, ~3 Mbps
    Аудио: AAC, 2 ch, 48 KHz, 192Kbps

    Скриншоты для ознакомления



    General
    Unique ID : 225760852057798962935102872354363320595 (0xA9D7F561E26F9AC8A5BC023BF484A913)
    Format : Matroska
    Format version : Version 4
    File size : 76.2 MiB
    Duration : 3 min 5 s
    Overall bit rate : 3 449 kb/s
    Encoded date : UTC 2017-06-26 18: 43: 10
    Writing application : mkvmerge v9.5.0 (\'Quiet Fire\') 32bit
    Writing library : libebml v1.3.4 + libmatroska v1.4.5
    Attachments : Facile SSi Bold.ttf
    Video
    ID : 1
    Format : AVC
    Format/Info : Advanced Video Codec
    Format profile : High 10@L5
    Format settings : CABAC/16 Ref Frames
    Format settings, CABAC : Yes
    Format settings, Reference : 16 frames
    Codec ID : V_MPEG4/ISO/AVC
    Duration : 3 min 5 s
    Bit rate : 3 256 kb/s
    Width : 1 280 pixels
    Height : 720 pixels
    Display aspect ratio : 16: 9
    Frame rate mode : Constant
    Frame rate : 23.976 (24000/1001) FPS
    Color space : YUV
    Chroma subsampling : 4: 2: 0
    Bit depth : 10 bits
    Scan type : Progressive
    Bits/(Pixel*Frame) : 0.147
    Stream size : 71.9 MiB (94%)
    Writing library : x264 core 142 r2431+42 c69a006 tMod 10-bit@4: 2: 0 X86_64
    Encoding settings : cabac=1/ref=16/deblock=1: 0: 0/analyse=0x3: 0x133/me=umh/subme=11/psy=1/fade_compensate=1.00/psy_rd=0.70: 0.15/mixed_ref=1/me_range=24/chroma_me=0/trellis=2/8x8dct=1/cqm=0/deadzone=21, 11/fast_pskip=0/chroma_qp_offset=-3/threads=12/lookahead_threads=1/sliced_threads=0/nr=0/decimate=1/interlaced=0/bluray_compat=0/constrained_intra=0/fgo=10/bframes=16/b_pyramid=2/b_adapt=1/b_bias=0/direct=3/weightb=1/open_gop=0/weightp=2/keyint=250/keyint_min=23/scenecut=40/intra_refresh=0/rc_lookahead=60/rc=crf/mbtree=1/crf=16.0000/qcomp=0.60/qpmin=0: 0: 0/qpmax=75: 75: 75/qpstep=4/ip_ratio=1.40/aq=1: 0.75/aq-sensitivity=10.00/aq-factor=1.00: 1.00: 1.00/aq2=0/aq3=0
    Language : Japanese
    Default : Yes
    Forced : No
    Audio
    ID : 2
    Format : AAC LC
    Format/Info : Advanced Audio Codec Low Complexity
    Codec ID : A_AAC-2
    Duration : 3 min 5 s
    Bit rate : 192 kb/s
    Channel(s) : 2 channels
    Channel layout : L R
    Sampling rate : 48.0 kHz
    Frame rate : 46.875 FPS (1024 SPF)
    Compression mode : Lossy
    Stream size : 4.18 MiB (5%)
    Language : Japanese
    Default : Yes
    Forced : No
    Text
    ID : 3
    Format : ASS
    Codec ID : S_TEXT/ASS
    Codec ID/Info : Advanced Sub Station Alpha
    Duration : 2 min 6 s
    Bit rate : 53 b/s
    Count of elements : 19
    Compression mode : Lossless
    Stream size : 844 Bytes (0%)
    Language : English
    Default : Yes
    Forced : No
    Время раздачи: 24/7 (до появления первых 3-5 скачавших)

    Онлайн видео Kidou Senshi Gundam: Twilight Axis



    Kidou Senshi Gundam: Twilight Axis | Mobile Suit Gundam Twilight Axis | Мобильный воин Гандам: Сумеречная ось [2017, Web, 6 из 6] WEBRip 720p 10-bit raw
    Рейтинг →
     (голосов: 1, оценка 4/5, голосовать можно 1 раз )

    Другие торренты по теме:

  • Kidou Senshi Gundam: Tekketsu no Orphans / Mobile Suit Gundam: Iron-Blooded Orphans / Мобильный доспех Гандам: Сироты железной крови [2015, TV, 1 из 12] HDTV 720p Raw скачать через торрент бесплатно
  • Kidou Senshi Gundam: The Origin | Mobile Suit Gundam: The Origin | Мобильный доспех Гандам: Начало [2015, OVA, 1 из 4 эп.] BDRip 1080p raw скачать через торрент бесплатно
  • Kidou Senshi Gundam 00 | Mobile Suit Gundam 00 | Мобильный воин ГАНДАМ 00 (первый, второй сезоны) [2007, TV, 50 эп.] BDRip 1080p raw
  • Kidou Senshi Gundam: Thunderbolt | Mobile Suit Gundam Thunderbolt | Мобильный воин Гандам: Грозовой сектор [2015, ONA, 2 из 4 эп.] WEBRip 720p Hi10P raw
  • Kidou Senshi Gundam: The Origin | Mobile Suit Gundam: The Origin | Мобильный доспех Гандам: Начало [2015, OVA, 3 из 4 эп.] BDrip 1080p raw+eng
  • Kidou Senshi Zeta Gundam / Mobile Suit Zeta Gundam / Мобильный воин Зета ГАНДАМ [1985, TV, 50] BDrip 720p raw
  • Kidou Senshi Z Gundam | Mobile Suit Zeta Gundam | Мобильный воин Зета Гандам [1985, TV, 50 эп.] HDTV 1080p rus+raw
  • Kidou Senshi Gundam 0080: Pocket no Naka no Sensou | Mobile Suit Gundam 0080: War in the Pocket | Мобильный воин Гандам 0080: Карманная война [1989, OVA, 6 эп.] DVDrip 480p raw+rus


    • Комментарии (0):

      Информация

      Информация

        Посетители, находящиеся в группе Гости, не могут оставлять комментарии в данной новости.

        ↓ Меню




        ↓ Опрос

        Вы добавили сайт в закладки?
        Да
        Нет


        Популярное

        Футурама / Futurama (1999-2013) DVDRip (7 Сезонов, 140 серии) скачать через торрент бесплатно

        (скачиваний: 70)
        Малышарики (2015-2019) WEB-DL [H.264 / 1080p-LQ] (серии 1-154 из 208) [Обновляемая]

        (скачиваний: 60)
        Жила-была царевна (2015-2019) WEB-DLRip [H.264 / 720p-LQ] (сезон 1, серии 1-18 из 26) [Обновляемая]

        (скачиваний: 36)
        Металионы / Metalions (2018-2019) WEB-DLRip [H.264 / 720p-LQ] (сезон 1, серии 1-52 из 52) [Обновляемая]

        (скачиваний: 32)
        Три кота (2018) WEB-DLRip [H.264 / 720p-LQ] (сезон 3, серии 105-106 из 156)

        (скачиваний: 27)
        В гостях у сказки (сборник 56 фильмов) (1939-2009) DVDRip

        (скачиваний: 26)
        Рик и Морти / Rick and Morty (2013) BDRip [H.264 / 1080p] (Сезон 1, серии 1-11 из 11) Сыендук [EN Sub] скачать через торрент бесплатно

        (скачиваний: 19)
        Спокойной ночи, малыши! (2009, 2015) SATRip, TVRip (83 выпусков)

        (скачиваний: 19)
        Роботы-поезда / Robot Trains (2017) WEB-DL [H.264 / 720p-LQ] (1 сезон, 32 серий из 32)

        (скачиваний: 15)
        Fate / stay night Movie: Heavens Feel - II. Lost Butterfly / Судьба: Ночь схватки. Прикосновение Небес - II. Потерявшаяся бабочка [2019, MV] BDRip 1080p Rus

        (скачиваний: 12)