.
Авторизация | Регистрация
bitok.xyz
» » Клаус / Klaus (2019) WEB-DLRip [H.264] торрент скачать бесплатно


    Клаус / Klaus (2019) WEB-DLRip [H.264] торрент скачать бесплатно

    Дата: 20-11-2019, 05:00 | .torrent скачали: 1

    Клаус / Klaus (2019) WEB-DLRip [H.264]Производство: Испания/The SPA Studios, Aniventure, Atresmedia Cine
    Жанр: Мультфильм, семейный, фэнтези, комедия, приключения
    Режиссер: Серджо Паблос

    Описание

    Молодого почтальона отправляют на работу в заснеженную деревушку с крайне недружелюбными и негостеприимными жителями. Там он встречает странного создателя игрушек, и между ними завязывается необычная дружба.

    Рейтинг MPAA: PG (рекомендуется присутствие родителей)
    Дата мировой премьеры: 8 ноября 2019
    Релиз от: NNMClub
    Продолжительность: 01: 38: 03
    Качество видео: WEB-DLRip
    Перевод: Дублированный (Невафильм)
    Субтитры: Русские (Forced, Full), английские (Full, SDH)
    Видео: AVC/H.264, 1024x552, ~1220 kbps
    Аудио 1: AC-3, 6 ch, 384 Kbps - Русский дубляж
    Аудио 2: AC-3, 6 ch, 384 Kbps - АнглийскийGeneral
    Unique ID : 293179594769457332731945371848493062234 (0xDC9056085AC8251F84E27C4B7D21585A)
    Complete name : Klaus.2019.NF.WEB-DLRip.AVC.RU.EN.NNMClub.mkv
    Format : Matroska
    Format version : Version 4
    File size : 1.36 GiB
    Duration : 1 h 38 min
    Overall bit rate : 1 986 kb/s
    Movie name : Klaus.2019.NF.WEB-DLRip.AVC.RU.EN.NNMClub
    Encoded date : UTC 2019-11-19 09: 49: 21
    Writing application : mkvmerge v36.0.0 (\'Is That Jazz?\') 64-bit
    Writing library : libebml v1.3.9 + libmatroska v1.5.2
    Video
    ID : 1
    Format : AVC
    Format/Info : Advanced Video Codec
    Format profile : High@L4.1
    Format settings : CABAC/9 Ref Frames
    Format settings, CABAC : Yes
    Format settings, Reference : 9 frames
    Codec ID : V_MPEG4/ISO/AVC
    Duration : 1 h 38 min
    Bit rate : 1 219 kb/s
    Width : 1 024 pixels
    Height : 552 pixels
    Display aspect ratio : 1.85: 1
    Frame rate mode : Constant
    Frame rate : 24.000 FPS
    Color space : YUV
    Chroma subsampling : 4: 2: 0
    Bit depth : 8 bits
    Scan type : Progressive
    Bits/(Pixel*Frame) : 0.090
    Stream size : 853 MiB (61%)
    Title : Klaus.2019.NF.WEB-DLRip.AVC.RU.EN.NNMClub
    Writing library : x264 core 158 r2988 7817004
    Encoding settings : cabac=1/ref=9/deblock=1: -3: -3/analyse=0x3: 0x133/me=umh/subme=11/psy=1/psy_rd=1.05: 0.05/mixed_ref=1/me_range=32/chroma_me=1/trellis=2/8x8dct=1/cqm=0/deadzone=21, 11/fast_pskip=0/chroma_qp_offset=-3/threads=4/lookahead_threads=1/sliced_threads=0/nr=0/decimate=0/interlaced=0/bluray_compat=0/constrained_intra=0/bframes=12/b_pyramid=2/b_adapt=2/b_bias=0/direct=3/weightb=1/open_gop=0/weightp=2/keyint=240/keyint_min=24/scenecut=40/intra_refresh=0/rc_lookahead=60/rc=2pass/mbtree=0/bitrate=1219/ratetol=1.0/qcomp=0.60/qpmin=0/qpmax=69/qpstep=4/cplxblur=20.0/qblur=0.5/vbv_maxrate=50000/vbv_bufsize=62500/nal_hrd=none/filler=0/ip_ratio=1.40/pb_ratio=1.30/aq=1: 1.00
    Language : Spanish
    Default : Yes
    Forced : No
    Audio #1
    ID : 2
    Format : AC-3
    Format/Info : Audio Coding 3
    Commercial name : Dolby Digital
    Codec ID : A_AC3
    Duration : 1 h 38 min
    Bit rate mode : Constant
    Bit rate : 384 kb/s
    Channel(s) : 6 channels
    Channel layout : L R C LFE Ls Rs
    Sampling rate : 48.0 kHz
    Frame rate : 31.250 FPS (1536 SPF)
    Compression mode : Lossy
    Stream size : 269 MiB (19%)
    Title : DUB-NEVAFILM
    Language : Russian
    Service kind : Complete Main
    Default : No
    Forced : No
    Audio #2
    ID : 3
    Format : AC-3
    Format/Info : Audio Coding 3
    Commercial name : Dolby Digital
    Codec ID : A_AC3
    Duration : 1 h 38 min
    Bit rate mode : Constant
    Bit rate : 384 kb/s
    Channel(s) : 6 channels
    Channel layout : L R C LFE Ls Rs
    Sampling rate : 48.0 kHz
    Frame rate : 31.250 FPS (1536 SPF)
    Compression mode : Lossy
    Stream size : 269 MiB (19%)
    Title : ORIGINAL
    Language : English
    Service kind : Complete Main
    Default : No
    Forced : No
    Text #1
    ID : 4
    Format : UTF-8
    Codec ID : S_TEXT/UTF8
    Codec ID/Info : UTF-8 Plain Text
    Duration : 1 h 36 min
    Bit rate : 0 b/s
    Count of elements : 13
    Stream size : 402 Bytes (0%)
    Title : FORCED
    Language : Russian
    Default : No
    Forced : No
    Text #2
    ID : 5
    Format : UTF-8
    Codec ID : S_TEXT/UTF8
    Codec ID/Info : UTF-8 Plain Text
    Duration : 1 h 36 min
    Bit rate : 81 b/s
    Count of elements : 1219
    Stream size : 57.9 KiB (0%)
    Title : FULL
    Language : Russian
    Default : No
    Forced : No
    Text #3
    ID : 6
    Format : UTF-8
    Codec ID : S_TEXT/UTF8
    Codec ID/Info : UTF-8 Plain Text
    Duration : 1 h 32 min
    Bit rate : 63 b/s
    Count of elements : 1352
    Stream size : 42.8 KiB (0%)
    Title : FULL
    Language : English
    Default : No
    Forced : No
    Text #4
    ID : 7
    Format : UTF-8
    Codec ID : S_TEXT/UTF8
    Codec ID/Info : UTF-8 Plain Text
    Duration : 1 h 32 min
    Bit rate : 72 b/s
    Count of elements : 1634
    Stream size : 49.2 KiB (0%)
    Title : SDH
    Language : English
    Default : No
    Forced : No

    Онлайн видео Клаус



    Клаус/Klaus (2019) WEB-DLRip [H.264]
    Рейтинг →
     (голосов: 1, оценка 5/5, голосовать можно 1 раз )

    Другие торренты по теме:

  • Клаус / Klaus (2019) WEB-DLRip
  • Клаус / Klaus (2019) WEB-DL [H.264 / 1080p-LQ]
  • Клаус / Klaus (2019) WEB-DLRip [H.264]


    • Комментарии (0):

      Информация

      Информация

        Посетители, находящиеся в группе Гости, не могут оставлять комментарии в данной новости.

        ↓ Меню




        ↓ Опрос

        Вы добавили сайт в закладки?
        Да
        Нет


        Популярное