.
Авторизация | Регистрация
bitok.xyz
» » Дельфин Берни / Bernie the Dolphin (2018) BDRemux [H.264 / 1080p] торрент скачать бесплатно


    Дельфин Берни / Bernie the Dolphin (2018) BDRemux [H.264 / 1080p] торрент скачать бесплатно

    Дата: 20-11-2019, 05:00 | .torrent скачали: 0

    Дельфин Берни / Bernie the Dolphin (2018) BDRemux [H.264 / 1080p]Производство: Канада/AIC Studios, Digital Caviar, Fairway Film Alliance
    Жанр: Боевик, комедия, семейный
    Режиссер: Кирк Харрис

    Актеры
    Лола Султан, Логан Аллен, Кевин Сорбо, Стелио Саванте, Jimel Atkins, Шон Майкл Глория, Патрик Малдун, Дахлия Леголт, Сэм Сорбо, Shane Sorbo

    Описание

    Одиннадцатилетний Кевин и его младшая сестренка Холли живут на побережье Флориды, обожают исследовать подводный мир и часто играют с их другом - дельфином Берни и его семьей. Но однажды Берни пропадает, и во время его поисков дети случайно узнают об ужасных планах местного бизнесмена Уинстона Миллса: на месте их любимого пляжа он хочет построить химический завод, что несет огромную угрозу для всех морских обитателей, живущих в этих краях. Теперь героям предстоит разработать план, чтобы спасти пляж и помочь Берни вернуться к семье.

    Рейтинг MPAA: G (нет возрастных ограничений)
    Дата мировой премьеры: 6 декабря 2018
    Дата российской премьеры: 18 ноября 2019, Новый Фильм
    Релиз от: mike7025
    Продолжительность: 01: 27: 52
    Качество видео: BDRemux
    Перевод: Дублированный (iTunes), многоголосый профессиональный (HDRezka studio)
    Субтитры: Английские
    Видео: AVC/H.264, 1920х1080, ~20.7 Mbps
    Аудио 1: AC3, 6 ch, 384 Kbps - Русский (Dub, iTunes)
    Аудио 2: AC3, 2 ch, 192 Kbps - Русский (МVO, HDRezka studio)
    Аудио 3: DTS-HD MA, 6 ch, 1536 Kbps - Английский
    General
    Unique ID : 41074013308951517096792804405660189904 (0x1EE691351E8DBA2126977EC2E55D84D0)
    Complete name : G: Bernie.The.Dolphin.2018.REMUX.mkv
    Format : Matroska
    Format version : Version 4/Version 2
    File size : 14.0 GiB
    Duration : 1 h 27 min
    Overall bit rate mode : Variable
    Overall bit rate : 22.9 Mb/s
    Encoded date : UTC 2019-11-18 18: 28: 23
    Writing application : mkvmerge v20.0.0 (\'I Am The Sun\') 64-bit
    Writing library : libebml v1.3.5 + libmatroska v1.4.8
    Video
    ID : 1
    Format : AVC
    Format/Info : Advanced Video Codec
    Format profile : High@L4.1
    Format settings : CABAC/2 Ref Frames
    Format settings, CABAC : Yes
    Format settings, RefFrames : 2 frames
    Codec ID : V_MPEG4/ISO/AVC
    Duration : 1 h 27 min
    Bit rate mode : Variable
    Bit rate : 20.7 Mb/s
    Maximum bit rate : 30.2 Mb/s
    Width : 1 920 pixels
    Height : 1 080 pixels
    Display aspect ratio : 16: 9
    Frame rate mode : Constant
    Frame rate : 23.976 (24000/1001) FPS
    Color space : YUV
    Chroma subsampling : 4: 2: 0
    Bit depth : 8 bits
    Scan type : Progressive
    Bits/(Pixel*Frame) : 0.417
    Stream size : 12.7 GiB (91%)
    Language : English
    Default : Yes
    Forced : No
    Audio #1
    ID : 2
    Format : AC-3
    Format/Info : Audio Coding 3
    Codec ID : A_AC3
    Duration : 1 h 27 min
    Bit rate mode : Constant
    Bit rate : 384 kb/s
    Channel(s) : 6 channels
    Channel positions : Front: L C R, Side: L R, LFE
    Sampling rate : 48.0 kHz
    Frame rate : 31.250 FPS (1536 SPF)
    Bit depth : 16 bits
    Compression mode : Lossy
    Stream size : 241 MiB (2%)
    Title : Dub iTunes
    Language : Russian
    Service kind : Complete Main
    Default : Yes
    Forced : No
    Audio #2
    ID : 3
    Format : AC-3
    Format/Info : Audio Coding 3
    Codec ID : A_AC3
    Duration : 1 h 27 min
    Bit rate mode : Constant
    Bit rate : 192 kb/s
    Channel(s) : 2 channels
    Channel positions : Front: L R
    Sampling rate : 48.0 kHz
    Frame rate : 31.250 FPS (1536 SPF)
    Bit depth : 16 bits
    Compression mode : Lossy
    Stream size : 121 MiB (1%)
    Title : MVO HDrezka Studio
    Language : Russian
    Service kind : Complete Main
    Default : No
    Forced : No
    Audio #3
    ID : 4
    Format : DTS
    Format/Info : Digital Theater Systems
    Format profile : MA/Core
    Codec ID : A_DTS
    Duration : 1 h 27 min
    Bit rate mode : Variable/Constant
    Bit rate : 1 536 kb/s/768 kb/s
    Channel(s) : 6 channels
    Channel positions : Front: L C R, Side: L R, LFE
    Sampling rate : 48.0 kHz
    Frame rate : 93.750 FPS (512 SPF)
    Bit depth : 16 bits
    Compression mode : Lossless/Lossy
    Stream size : 979 MiB (7%)
    Language : English
    Default : No
    Forced : No
    Text
    ID : 5
    Format : UTF-8
    Codec ID : S_TEXT/UTF8
    Codec ID/Info : UTF-8 Plain Text
    Duration : 1 h 22 min
    Bit rate : 70 b/s
    Count of elements : 1324
    Stream size : 42.9 KiB (0%)
    Language : English
    Default : No
    Forced : No
    Menu
    00: 00: 00.000 : en: Chapter 01
    00: 02: 35.321 : en: Chapter 02
    00: 12: 10.062 : en: Chapter 03
    00: 23: 06.802 : en: Chapter 04
    00: 29: 24.137 : en: Chapter 05
    00: 34: 18.556 : en: Chapter 06
    00: 42: 56.031 : en: Chapter 07
    00: 49: 51.571 : en: Chapter 08
    00: 54: 52.664 : en: Chapter 09
    01: 03: 45.029 : en: Chapter 10
    01: 13: 39.915 : en: Chapter 11
    01: 22: 07.631 : en: Chapter 12

    Скриншоты для ознакомления



    Все одноименные релизы в Клубе
    Время раздачи: 24/7 (до появления первых 3-5 скачавших)

    Онлайн видео Дельфин Берни



    Дельфин Берни/Bernie the Dolphin (2018) BDRemux [H.264/1080p]
    Рейтинг →
     (голосов: 1, оценка 5/5, голосовать можно 1 раз )

    Другие торренты по теме:

  • Дельфин Берни / Bernie The Dolphin (2018) HDRip [MVO]
  • Дельфин Берни / Bernie The Dolphin (2018) BDRip [H.264 / 720p-LQ] [MVO]
  • Дельфин Берни / Bernie the Dolphin (2018) BDRip [H.264 / 1080p]


    • Комментарии (0):

      Информация

      Информация

        Посетители, находящиеся в группе Гости, не могут оставлять комментарии в данной новости.

        ↓ Меню




        ↓ Опрос

        Вы добавили сайт в закладки?
        Да
        Нет


        Популярное