.
Авторизация | Регистрация
bitok.xyz
» » Тайная жизнь домашних животных 2 / The Secret Life of Pets 2 (2019) BDRip [H.264] торрент скачать бесплатно


    Тайная жизнь домашних животных 2 / The Secret Life of Pets 2 (2019) BDRip [H.264] торрент скачать бесплатно

    Дата: 21-11-2019, 05:00 | .torrent скачали: 1

    Тайная жизнь домашних животных 2 / The Secret Life of Pets 2 (2019) BDRip [H.264]Производство: США, Франция, Япония/Universal Pictures, Illumination Entertainment, Dentsu
    Жанр: Мультфильм, комедия, приключения, семейный
    Режиссер: Крис Рено, Джонатан дель Валь

    Описание

    Хозяева Макса уезжают за город в гости на ранчо и берут с собой Макса. Тем временем, в городе у Снежка и Гиджет свои приключения.

    Возраст: 6+ (зрителям, достигшим 6 лет)
    Рейтинг MPAA: PG (рекомендуется присутствие родителей)
    Дата мировой премьеры: 24 мая 2019
    Дата российской премьеры: 30 мая 2019, UPI
    Релиз от: NNMClub
    Продолжительность: 01: 26: 03
    Качество видео: BDRip
    Язык озвучки: Русский, украинский, английский
    Перевод: Дублированный
    Субтитры: Русские (Forced, Full), английские (Full, SDH)
    Видео: AVC/H.264, 1024x552, 2684 Kbps, 23.976 fps
    Аудио 1: AC3, 6 ch, 384 Kbps - Русский дубляж (BD EUR)
    Аудио 2: AC3, 2 ch, 192 Kbps - Украинский дубляж (студія LeDoyen)
    Аудио 3: AC3, 6 ch, 384 Kbps - Английский (Оригинал)General
    Unique ID : 156545005939783312015059844646530157524 (0x75C578B17EEB50DA1416A7E55AFF8BD4)
    Complete name : The.Secret.Life.of.Pets.2.2019.BDRip.AVC.NNMClub.mkv
    Format : Matroska
    Format version : Version 4
    File size : 2.19 GiB
    Duration : 1 h 26 min
    Overall bit rate : 3 642 kb/s
    Movie name : The.Secret.Life.of.Pets.2.2019.BDRip.AVC.NNMClub
    Encoded date : UTC 2019-11-20 06: 38: 26
    Writing application : mkvmerge v36.0.0 (\'Is That Jazz?\') 64-bit
    Writing library : libebml v1.3.9 + libmatroska v1.5.2
    Video
    ID : 1
    Format : AVC
    Format/Info : Advanced Video Codec
    Format profile : High@L4.1
    Format settings : CABAC/9 Ref Frames
    Format settings, CABAC : Yes
    Format settings, Reference : 9 frames
    Codec ID : V_MPEG4/ISO/AVC
    Duration : 1 h 26 min
    Bit rate : 2 684 kb/s
    Width : 1 024 pixels
    Height : 552 pixels
    Display aspect ratio : 1.85: 1
    Frame rate mode : Constant
    Frame rate : 23.976 (24000/1001) FPS
    Color space : YUV
    Chroma subsampling : 4: 2: 0
    Bit depth : 8 bits
    Scan type : Progressive
    Bits/(Pixel*Frame) : 0.198
    Stream size : 1.61 GiB (74%)
    Title : The.Secret.Life.of.Pets.2.2019.BDRip.AVC.NNMClub
    Writing library : x264 core 158 r2988 7817004
    Encoding settings : cabac=1/ref=9/deblock=1: -3: -3/analyse=0x3: 0x133/me=umh/subme=11/psy=1/psy_rd=1.05: 0.05/mixed_ref=1/me_range=32/chroma_me=1/trellis=2/8x8dct=1/cqm=0/deadzone=21, 11/fast_pskip=0/chroma_qp_offset=-3/threads=4/lookahead_threads=1/sliced_threads=0/nr=0/decimate=0/interlaced=0/bluray_compat=0/constrained_intra=0/bframes=12/b_pyramid=2/b_adapt=2/b_bias=0/direct=3/weightb=1/open_gop=0/weightp=2/keyint=240/keyint_min=23/scenecut=40/intra_refresh=0/rc_lookahead=60/rc=2pass/mbtree=0/bitrate=2684/ratetol=1.0/qcomp=0.60/qpmin=0/qpmax=69/qpstep=4/cplxblur=20.0/qblur=0.5/vbv_maxrate=50000/vbv_bufsize=62500/nal_hrd=none/filler=0/ip_ratio=1.40/pb_ratio=1.30/aq=1: 1.00
    Language : English
    Default : Yes
    Forced : No
    Audio #1
    ID : 2
    Format : AC-3
    Format/Info : Audio Coding 3
    Commercial name : Dolby Digital
    Codec ID : A_AC3
    Duration : 1 h 26 min
    Bit rate mode : Constant
    Bit rate : 384 kb/s
    Channel(s) : 6 channels
    Channel layout : L R C LFE Ls Rs
    Sampling rate : 48.0 kHz
    Frame rate : 31.250 FPS (1536 SPF)
    Compression mode : Lossy
    Stream size : 236 MiB (11%)
    Title : DUB-BD EUR
    Language : Russian
    Service kind : Complete Main
    Default : No
    Forced : No
    Audio #2
    ID : 3
    Format : AC-3
    Format/Info : Audio Coding 3
    Commercial name : Dolby Digital
    Codec ID : A_AC3
    Duration : 1 h 26 min
    Bit rate mode : Constant
    Bit rate : 192 kb/s
    Channel(s) : 2 channels
    Channel layout : L R
    Sampling rate : 48.0 kHz
    Frame rate : 31.250 FPS (1536 SPF)
    Compression mode : Lossy
    Stream size : 118 MiB (5%)
    Title : DUB-LeDoyen
    Language : Ukrainian
    Service kind : Complete Main
    Default : No
    Forced : No
    Audio #3
    ID : 4
    Format : AC-3
    Format/Info : Audio Coding 3
    Commercial name : Dolby Digital
    Codec ID : A_AC3
    Duration : 1 h 26 min
    Bit rate mode : Constant
    Bit rate : 384 kb/s
    Channel(s) : 6 channels
    Channel layout : L R C LFE Ls Rs
    Sampling rate : 48.0 kHz
    Frame rate : 31.250 FPS (1536 SPF)
    Compression mode : Lossy
    Stream size : 236 MiB (11%)
    Title : ORIGINAL
    Language : English
    Service kind : Complete Main
    Default : No
    Forced : No
    Text #1
    ID : 5
    Format : UTF-8
    Codec ID : S_TEXT/UTF8
    Codec ID/Info : UTF-8 Plain Text
    Duration : 1 h 1 min
    Bit rate : 0 b/s
    Count of elements : 8
    Stream size : 266 Bytes (0%)
    Title : FORCED
    Language : Russian
    Default : No
    Forced : No
    Text #2
    ID : 6
    Format : UTF-8
    Codec ID : S_TEXT/UTF8
    Codec ID/Info : UTF-8 Plain Text
    Duration : 1 h 24 min
    Bit rate : 60 b/s
    Count of elements : 1093
    Stream size : 37.4 KiB (0%)
    Title : FULL
    Language : Russian
    Default : No
    Forced : No
    Text #3
    ID : 7
    Format : UTF-8
    Codec ID : S_TEXT/UTF8
    Codec ID/Info : UTF-8 Plain Text
    Duration : 1 h 25 min
    Bit rate : 53 b/s
    Count of elements : 1324
    Stream size : 33.3 KiB (0%)
    Title : FULL
    Language : English
    Default : No
    Forced : No
    Text #4
    ID : 8
    Format : UTF-8
    Codec ID : S_TEXT/UTF8
    Codec ID/Info : UTF-8 Plain Text
    Duration : 1 h 25 min
    Bit rate : 77 b/s
    Count of elements : 1924
    Stream size : 48.5 KiB (0%)
    Title : SDH
    Language : English
    Default : No
    Forced : No
    Menu
    00: 00: 00.000 : : Chapter 01
    00: 05: 34.542 : : Chapter 02
    00: 10: 07.815 : : Chapter 03
    00: 13: 26.305 : : Chapter 04
    00: 16: 39.790 : : Chapter 05
    00: 19: 56.945 : : Chapter 06
    00: 24: 10.073 : : Chapter 07
    00: 28: 15.735 : : Chapter 08
    00: 30: 54.269 : : Chapter 09
    00: 35: 15.113 : : Chapter 10
    00: 39: 55.976 : : Chapter 11
    00: 45: 47.327 : : Chapter 12
    00: 49: 51.822 : : Chapter 13
    00: 56: 54.994 : : Chapter 14
    00: 58: 35.220 : : Chapter 15
    01: 02: 48.931 : : Chapter 16
    01: 07: 16.615 : : Chapter 17
    01: 12: 48.822 : : Chapter 18
    01: 15: 21.808 : : Chapter 19
    01: 18: 10.018 : : Chapter 20


    Онлайн видео Тайная жизнь домашних животных 2



    Тайная жизнь домашних животных 2/The Secret Life of Pets 2 (2019) BDRip [H.264]
    Рейтинг →
     (голосов: 1, оценка 4/5, голосовать можно 1 раз )

    Другие торренты по теме:

  • BBC: Магия грибов (Тайная жизнь грибов) / The Magic of Mushrooms (2014) HDTVRip [H.264 / 720p] скачать через торрент бесплатно
  • Тайная жизнь пчёл / The Secret Life of Bees (2008) HDTV [H.264 / 1080i] скачать через торрент бесплатно
  • Animal Planet. Тайная жизнь домашних питомцев / Secret life of pets (2014) HDTVRip [Серия 1-8 из 8] скачать через торрент бесплатно
  • Тайная жизнь миллионеров (06.07.2015) SATRip скачать через торрент бесплатно
  • Тайная жизнь миллионеров (07.07.2015) SATRip скачать через торрент бесплатно
  • Тайная жизнь миллионеров (09.07.2015) SATRip скачать через торрент бесплатно
  • Тайная жизнь бобров (Заклинатели бобров) / The Beaver Whisperers (2013) HDRip 576p скачать через торрент бесплатно
  • Хуан Санчес, Аксель Гильден | Тайная жизнь Фиделя Кастро. Шокирующие откровения личного телохранителя кубинского лидера (2015) [FB2] скачать через торрент бесплатно


    • Комментарии (0):

      Информация

      Информация

        Посетители, находящиеся в группе Гости, не могут оставлять комментарии в данной новости.

        ↓ Меню




        ↓ Опрос

        Вы добавили сайт в закладки?
        Да
        Нет


        Популярное