.
Авторизация | Регистрация
bitok.xyz
» » Тайна Коко / Coco (2017) BDRip [H.265 / 1080p-LQ] [10-bit] торрент скачать бесплатно


    Тайна Коко / Coco (2017) BDRip [H.265 / 1080p-LQ] [10-bit] торрент скачать бесплатно

    Дата: 21-11-2019, 05:00 | .torrent скачали: 0

    Тайна Коко / Coco (2017) BDRip [H.265 / 1080p-LQ] [10-bit]Производство: США/Walt Disney Pictures, Pixar Animation Studios
    Жанр: мультфильм, фэнтези, комедия, детектив, приключения, семейный, музыка
    Режиссер: Ли Анкрич, Эдриан Молина

    Описание
    12-летний Мигель живёт в мексиканской деревушке в семье сапожников и тайно мечтает стать музыкантом. Тайно — потому что в его семейном клане музыка считается проклятием. Когда-то его прапрадед оставил свою жену, прапрабабку Мигеля, ради мечты, которая теперь не даёт спокойно жить Мигелю. С тех пор музыкальная тема в семье стала табу.

    Возраст: 12+ (зрителям, достигшим 12 лет)
    Рейтинг MPAA: PG (рекомендуется присутствие родителей)
    Релиз от: Mr. Fox (HEVC-CLUB)
    Продолжительность: 01: 45: 02
    Качество видео: BDRip
    Перевод: Дублированный
    Язык озвучки: Русский, украинский, английский
    Субтитры: Русские (форсированные, полные), украинские (форсированные), английские (полные, SDH)
    Видео: HEVC/H.265, 1920x804, ~5314 Kbps
    Аудио 1: AC3, 6 ch, 640 Kbps - Русский, дублированный (Лицензия)
    Аудио 2: AC3, 2 ch, 192 Kbps - Украинский, дублированный
    Аудио 3: AC3, 6 ch, 640 Kbps - Английский
    Общее
    Уникальный идентификатор : 318437754223638150026551752742853122290 (0xEF90E170DABF7B09970DBF89898398F2)
    Полное имя : R: Coco (2017) BDRip 1080p HEVC.mkv
    Формат : Matroska
    Версия формата : Version 4/Version 2
    Размер файла : 4, 98 Гбайт
    Продолжительность : 1 ч. 45 м.
    Общий поток : 6789 Кбит/сек
    Название фильма : Coco (2017)
    Дата кодирования : UTC 2019-11-19 04: 10: 13
    Программа кодирования : mkvmerge v40.0.0 (\'Old Town Road + Pony\') 64-bit
    Библиотека кодирования : libebml v1.3.9 + libmatroska v1.5.2
    Обложка : Yes
    Attachments : cover.jpg
    Видео
    Идентификатор : 1
    Формат : HEVC
    Формат/Информация : High Efficiency Video Coding
    Профиль формата : Main10@L4.1@High
    Идентификатор кодека : V_MPEGH/ISO/HEVC
    Продолжительность : 1 ч. 45 м.
    Битрейт : 5314 Кбит/сек
    Ширина : 1920 пикселей
    Высота : 804 пикселя
    Соотношение сторон : 2, 40: 1
    Режим частоты кадров : Постоянный
    Частота кадров : 23, 976 (23976/1000) кадра/сек
    Частота кадров в оригинале : 23, 976 (24000/1001) кадра/сек
    Цветовое пространство : YUV
    Субдискретизация насыщенности : 4: 2: 0
    Битовая глубина : 10 бит
    Бит/(Пиксели*Кадры) : 0.144
    Размер потока : 3, 90 Гбайт (78%)
    Библиотека кодирования : x265 3.2.1+1-b5c86a64bbbe: WindowsMSVC 192364 bit 10bit
    Настройки программы : cpuid=1111039/frame-threads=3/numa-pools=12/wpp/no-pmode/no-pme/no-psnr/no-ssim/log-level=2/input-csp=1/input-res=1920x804/interlace=0/total-frames=151096/level-idc=41/high-tier=1/uhd-bd=0/ref=5/no-allow-non-conformance/no-repeat-t_heads/annexb/no-aud/no-hrd/info/hash=0/no-temporal-layers/open-gop/min-keyint=23/keyint=240/gop-lookahead=0/bframes=9/b-adapt=2/b-pyramid/bframe-bias=0/rc-lookahead=60/lookahead-slices=4/scenecut=40/radl=0/no-splice/no-intra-refresh/ctu=32/min-cu-size=8/rect/amp/max-tu-size=32/tu-inter-depth=4/tu-intra-depth=4/limit-tu=1/rdoq-level=2/dynamic-rd=0.00/no-ssim-rd/signhide/no-tskip/nr-intra=0/nr-inter=0/no-constrained-intra/no-strong-intra-smoothing/max-merge=4/limit-refs=2/limit-modes/me=3/subme=7/merange=57/temporal-mvp/no-hme/weightp/weightb/no-analyze-src-pics/deblock=-3: -3/no-sao/no-sao-non-deblock/rd=6/selective-sao=0/no-early-skip/no-rskip/no-fast-intra/no-tskip-fast/no-cu-lossless/no-b-intra/no-splitrd-skip/rdpenalty=0/psy-rd=2.00/psy-rdoq=1.00/no-rd-refine/no-lossless/cbqpoffs=0/crqpoffs=0/rc=crf/crf=20.0/qcomp=0.65/qpstep=4/stats-write=0/stats-read=0/vbv-maxrate=50000/vbv-bufsize=50000/vbv-init=0.9/crf-max=0.0/crf-min=0.0/ipratio=1.40/pbratio=1.30/aq-mode=1/aq-strength=1.00/no-cutree/zone-count=0/no-strict-cbr/qg-size=32/no-rc-grain/qpmax=69/qpmin=0/no-const-vbv/sar=1/overscan=0/videoformat=5/range=0/colorprim=1/transfer=1/colormatrix=1/chromaloc=0/display-window=0/cll=0, 0/min-luma=0/max-luma=1023/log2-max-poc-lsb=8/vui-timing-info/vui-hrd-info/slices=1/no-opt-qp-pps/no-opt-ref-list-length-pps/no-multi-pass-opt-rps/scenecut-bias=0.05/no-opt-cu-delta-qp/no-aq-motion/no-hdr/no-hdr-opt/no-dhdr10-opt/no-idr-recovery-sei/analysis-reuse-level=5/scale-factor=0/refine-intra=0/refine-inter=0/refine-mv=1/refine-ctu-distortion=0/no-limit-sao/ctu-info=0/no-lowpass-dct/refine-analysis-type=0/copy-pic=1/max-ausize-factor=1.0/no-dynamic-refine/no-single-sei/no-hevc-aq/no-svt/no-field/qp-adaptation-range=1.00
    Default : Да
    Forced : Нет
    Цветовой диапазон : Limited
    Основные цвета : BT.709
    Характеристики трансфера : BT.709
    Коэффициенты матрицы : BT.709
    Аудио #1
    Идентификатор : 2
    Формат : AC-3
    Формат/Информация : Audio Coding 3
    Идентификатор кодека : A_AC3
    Продолжительность : 1 ч. 45 м.
    Вид битрейта : Постоянный
    Битрейт : 640 Кбит/сек
    Каналы : 6 каналов
    Расположение каналов : Front: L C R, Side: L R, LFE
    Частота : 48, 0 КГц
    Частота кадров : 31, 250 кадров/сек (1536 SPF)
    Битовая глубина : 16 бит
    Метод сжатия : С потерями
    Размер потока : 481 Мбайт (9%)
    Заголовок : Дубляж
    Язык : Russian
    ServiceKind/String : Complete Main
    Default : Да
    Forced : Нет
    Аудио #2
    Идентификатор : 3
    Формат : AC-3
    Формат/Информация : Audio Coding 3
    Идентификатор кодека : A_AC3
    Продолжительность : 1 ч. 45 м.
    Вид битрейта : Постоянный
    Битрейт : 192 Кбит/сек
    Каналы : 2 канала
    Расположение каналов : Front: L R
    Частота : 48, 0 КГц
    Частота кадров : 31, 250 кадров/сек (1536 SPF)
    Битовая глубина : 16 бит
    Метод сжатия : С потерями
    Размер потока : 144 Мбайт (3%)
    Заголовок : Дубляж
    Язык : Ukrainian
    ServiceKind/String : Complete Main
    Default : Нет
    Forced : Нет
    Аудио #3
    Идентификатор : 4
    Формат : AC-3
    Формат/Информация : Audio Coding 3
    Идентификатор кодека : A_AC3
    Продолжительность : 1 ч. 45 м.
    Вид битрейта : Постоянный
    Битрейт : 640 Кбит/сек
    Каналы : 6 каналов
    Расположение каналов : Front: L C R, Side: L R, LFE
    Частота : 48, 0 КГц
    Частота кадров : 31, 250 кадров/сек (1536 SPF)
    Битовая глубина : 16 бит
    Метод сжатия : С потерями
    Размер потока : 481 Мбайт (9%)
    Заголовок : Original
    Язык : English
    ServiceKind/String : Complete Main
    Default : Нет
    Forced : Нет
    Текст #1
    Идентификатор : 5
    Формат : UTF-8
    Идентификатор кодека : S_TEXT/UTF8
    Идентификатор кодека/Информация : UTF-8 Plain Text
    Продолжительность : 1 ч. 33 м.
    Битрейт : 0 бит/сек
    ElementCount : 16
    Размер потока : 524 байт (0%)
    Заголовок : Форсированные
    Язык : Russian
    Default : Да
    Forced : Нет
    Текст #2
    Идентификатор : 6
    Формат : UTF-8
    Идентификатор кодека : S_TEXT/UTF8
    Идентификатор кодека/Информация : UTF-8 Plain Text
    Продолжительность : 1 ч. 34 м.
    Битрейт : 94 бит/сек
    ElementCount : 1168
    Размер потока : 65, 7 Кбайт (0%)
    Заголовок : Полные
    Язык : Russian
    Default : Нет
    Forced : Нет
    Текст #3
    Идентификатор : 7
    Формат : UTF-8
    Идентификатор кодека : S_TEXT/UTF8
    Идентификатор кодека/Информация : UTF-8 Plain Text
    Продолжительность : 1 ч. 33 м.
    Битрейт : 0 бит/сек
    ElementCount : 16
    Размер потока : 433 байт (0%)
    Заголовок : Форсированные
    Язык : Ukrainian
    Default : Нет
    Forced : Нет
    Текст #4
    Идентификатор : 8
    Формат : UTF-8
    Идентификатор кодека : S_TEXT/UTF8
    Идентификатор кодека/Информация : UTF-8 Plain Text
    Продолжительность : 1 ч. 37 м.
    Битрейт : 63 бит/сек
    ElementCount : 1441
    Размер потока : 45, 6 Кбайт (0%)
    Заголовок : Full
    Язык : English
    Default : Нет
    Forced : Нет
    Текст #5
    Идентификатор : 9
    Формат : UTF-8
    Идентификатор кодека : S_TEXT/UTF8
    Идентификатор кодека/Информация : UTF-8 Plain Text
    Продолжительность : 1 ч. 38 м.
    Битрейт : 77 бит/сек
    ElementCount : 1722
    Размер потока : 55, 9 Кбайт (0%)
    Заголовок : SDH
    Язык : English
    Default : Нет
    Forced : Нет
    Меню
    00: 00: 00.000 : en: (01)00: 00: 00: 000
    00: 06: 40.191 : en: (02)00: 06: 40: 191
    00: 08: 41.520 : en: (03)00: 08: 41: 520
    00: 11: 13.589 : en: (04)00: 11: 13: 589
    00: 14: 20.317 : en: (05)00: 14: 20: 317
    00: 17: 06.942 : en: (06)00: 17: 06: 942
    00: 18: 20.933 : en: (07)00: 18: 20: 933
    00: 22: 05.991 : en: (08)00: 22: 05: 991
    00: 24: 19.958 : en: (09)00: 24: 19: 958
    00: 27: 44.829 : en: (10)00: 27: 44: 829
    00: 29: 07.912 : en: (11)00: 29: 07: 912
    00: 32: 15.308 : en: (12)00: 32: 15: 308
    00: 35: 18.407 : en: (13)00: 35: 18: 407
    00: 41: 25.524 : en: (14)00: 41: 25: 524
    00: 47: 04.696 : en: (15)00: 47: 04: 696
    00: 50: 54.175 : en: (16)00: 50: 54: 175
    00: 54: 23.885 : en: (17)00: 54: 23: 885
    00: 56: 45.026 : en: (18)00: 56: 45: 026
    01: 01: 42.615 : en: (19)01: 01: 42: 615
    01: 03: 28.137 : en: (20)01: 03: 28: 137
    01: 08: 58.217 : en: (21)01: 08: 58: 217
    01: 15: 17.262 : en: (22)01: 15: 17: 262
    01: 18: 56.773 : en: (23)01: 18: 56: 773
    01: 21: 31.761 : en: (24)01: 21: 31: 761
    01: 24: 31.816 : en: (25)01: 24: 31: 816
    01: 28: 23.464 : en: (26)01: 28: 23: 464
    01: 33: 14.755 : en: (27)01: 33: 14: 755
    01: 36: 10.472 : en: (28)01: 36: 10: 472
    01: 45: 01.753 : en: (29)01: 45: 01: 753


    Онлайн видео Тайна Коко



    Тайна Коко/Coco (2017) BDRip [H.265/1080p-LQ] [10-bit]
    Рейтинг →
     (голосов: 1, оценка 3/5, голосовать можно 1 раз )

    Другие торренты по теме:

  • Тайна Коко / Coco (2017) DVDScr [EN / EN Sub]
  • Тайна Коко / Coco (2017) WEBRip [Line, AD]
  • Тайна Коко / Coco (2017) WEBRip [H.264 / 1080p-LQ] [EN / EN Sub]
  • Тайна Коко / Coco (2017) WEBRip [H.264 / 720p-LQ] [EN]
  • Тайна Коко / Coco (2017) WEB-DL [AD]
  • Тайна Коко / Coco (2017) BDRip [H.264 / 1080p] [EN / EN Sub]
  • Тайна Коко / Coco (2017) BDRip [H.264]
  • Тайна Коко / Coco (2017) BDRip [H.264]


    • Комментарии (0):

      Информация

      Информация

        Посетители, находящиеся в группе Гости, не могут оставлять комментарии в данной новости.

        ↓ Меню




        ↓ Опрос

        Вы добавили сайт в закладки?
        Да
        Нет


        Популярное