.
Авторизация | Регистрация
bitok.xyz
» » Новая жизнь Рокко: Залипание / Rockos Modern Life: Static Cling (2019) WEB-DL [H.264 / 1080p] [MVO] торрент скачать бесплатно


    Новая жизнь Рокко: Залипание / Rockos Modern Life: Static Cling (2019) WEB-DL [H.264 / 1080p] [MVO] торрент скачать бесплатно

    Дата: 21-11-2019, 05:00 | .torrent скачали: 1

    Новая жизнь Рокко: Залипание / Rockos Modern Life: Static Cling (2019) WEB-DL [H.264 / 1080p] [MVO]Производство: США/Joe Murray Productions Inc., Nickelodeon Animation Studios
    Жанр: мультфильм, короткометражка, боевик, комедия, приключения, семейный
    Режиссер: Joe Murray, Cosmo Segurson

    Актеры
    Карлос Аласраки, Том Кенни, Чарльз Адлер, Мистер Лоуренс, Джилл Тэлли, Линда Уоллем, Стив Литтл, Джо Мюррэй, Cosmo Segurson, Том Смит

    Описание

    Невероятные приключения, маленького бобрёнка по имени Рокко и его друзей, которые проживают в маленьком городке под названием О-Таун.
    Пробыв в космосе двадцать лет, Рокко и его друзья пытаются приспособиться к более современной жизни.

    Дата мировой премьеры: 3 апреля 2019
    Релиз от: Братишка Бивис (пародия на ту самую старую озвучку сериала с ТНТ)
    Продолжительность: 00: 45: 55
    Качество видео: WEB-DL
    Перевод: Многоголосый любительский (Братец Бивис)
    Субтитры: русские, английские
    Видео: AVC/H.264, 1920x1080, 7 500 kbps
    Аудио1: AC3, 2 ch, 224 kbps - русский
    Аудио2: E-AC-3 , 6 ch, 640 kbps - английский
    General
    Unique ID : 225169794331488440266575821144032270822 (0xA9661FFC8E67DDE01EB07FF9891BD9E6)
    Complete name : I: Rockos.Modern.Life.Static.Cling.2019.mkv
    Format : Matroska
    Format version : Version 4
    File size : 2.63 GiB
    Duration : 45 min 55 s
    Overall bit rate mode : Variable
    Overall bit rate : 8 192 kb/s
    Encoded date : UTC 2019-10-27 11: 02: 30
    Writing application : mkvmerge v38.0.0 (\'The Silent Type\') 32-bit
    Writing library : libebml v1.3.9 + libmatroska v1.5.2
    Cover : Yes
    Attachments : Cover.jpg
    Video
    ID : 1
    Format : AVC
    Format/Info : Advanced Video Codec
    Format profile : Main@L4
    Format settings : CABAC/3 Ref Frames
    Format settings, CABAC : Yes
    Format settings, ReFrames : 3 frames
    Codec ID : V_MPEG4/ISO/AVC
    Duration : 45 min 55 s
    Bit rate mode : Variable
    Bit rate : 7 500 kb/s
    Maximum bit rate : 11.2 Mb/s
    Width : 1 920 pixels
    Height : 1 080 pixels
    Display aspect ratio : 16: 9
    Frame rate mode : Constant
    Frame rate : 23.976 (24000/1001) FPS
    Color space : YUV
    Chroma subsampling : 4: 2: 0
    Bit depth : 8 bits
    Scan type : Progressive
    Bits/(Pixel*Frame) : 0.151
    Stream size : 2.35 GiB (89%)
    Writing library : x264 core 148 r2715 7e75228
    Encoding settings : cabac=1/ref=3/deblock=1: 0: 0/analyse=0x1: 0x111/me=umh/subme=10/psy=1/psy_rd=1.00: 0.00/mixed_ref=1/me_range=24/chroma_me=1/trellis=2/8x8dct=0/cqm=0/deadzone=21, 11/fast_pskip=1/chroma_qp_offset=-2/threads=8/lookahead_threads=1/sliced_threads=0/nr=0/decimate=1/interlaced=0/bluray_compat=0/stitchable=1/constrained_intra=0/bframes=2/b_pyramid=0/b_adapt=2/b_bias=0/direct=3/weightb=1/open_gop=0/weightp=2/keyint=250/keyint_min=23/scenecut=0/intra_refresh=0/rc_lookahead=48/rc=2pass/mbtree=1/bitrate=7500/ratetol=1.0/qcomp=0.50/qpmin=6/qpmax=51/qpstep=4/cplxblur=20.0/qblur=0.5/vbv_maxrate=11250/vbv_bufsize=15000/nal_hrd=vbr/filler=0/ip_ratio=1.40/aq=1: 1.00
    Language : English
    Default : Yes
    Forced : No
    Audio #1
    ID : 2
    Format : AC-3
    Format/Info : Audio Coding 3
    Commercial name : Dolby Digital
    Codec ID : A_AC3
    Duration : 45 min 55 s
    Bit rate mode : Constant
    Bit rate : 224 kb/s
    Channel(s) : 2 channels
    Channel layout : L R
    Sampling rate : 48.0 kHz
    Frame rate : 31.250 FPS (1536 SPF)
    Bit depth : 16 bits
    Compression mode : Lossy
    Stream size : 73.6 MiB (3%)
    Language : Russian
    Service kind : Complete Main
    Default : Yes
    Forced : No
    Audio #2
    ID : 3
    Format : E-AC-3
    Format/Info : Enhanced AC-3
    Commercial name : Dolby Digital Plus
    Codec ID : A_EAC3
    Duration : 45 min 55 s
    Bit rate mode : Constant
    Bit rate : 640 kb/s
    Channel(s) : 6 channels
    Channel layout : L R C LFE Ls Rs
    Sampling rate : 48.0 kHz
    Frame rate : 31.250 FPS (1536 SPF)
    Compression mode : Lossy
    Stream size : 210 MiB (8%)
    Title : English
    Language : English
    Service kind : Complete Main
    Default : No
    Forced : No
    Text #1
    ID : 4
    Format : UTF-8
    Codec ID : S_TEXT/UTF8
    Codec ID/Info : UTF-8 Plain Text
    Duration : 44 min 35 s
    Bit rate : 117 b/s
    Count of elements : 763
    Stream size : 38.5 KiB (0%)
    Title : Russian
    Language : Russian
    Default : No
    Forced : No
    Text #2
    ID : 5
    Format : UTF-8
    Codec ID : S_TEXT/UTF8
    Codec ID/Info : UTF-8 Plain Text
    Duration : 43 min 46 s
    Bit rate : 74 b/s
    Count of elements : 865
    Stream size : 23.9 KiB (0%)
    Title : English
    Language : English
    Default : No
    Forced : No
    Text #3
    ID : 6
    Format : UTF-8
    Codec ID : S_TEXT/UTF8
    Codec ID/Info : UTF-8 Plain Text
    Duration : 43 min 48 s
    Bit rate : 85 b/s
    Count of elements : 1007
    Stream size : 27.6 KiB (0%)
    Title : English (SDH)
    Language : English
    Default : No
    Forced : No

    Скриншоты для ознакомления



    Все одноименные релизы в Клубе
    Время раздачи: 14 00 - 17 00 и 23 00 - 6 00 (до появления первых 3-5 скачавших)

    Онлайн видео Новая жизнь Рокко: Залипание



    Новая жизнь Рокко: Залипание/Rockos Modern Life: Static Cling (2019) WEB-DL [H.264/1080p] [MVO]
    Рейтинг →
     (голосов: 1, оценка 5/5, голосовать можно 1 раз )

    Другие торренты по теме:

  • X-Tension: New Life / X: Мобилизация: Новая жизнь (2000) [Ru] (2.2 / mod 1.2.1) Repack / Mod aL скачать через торрент бесплатно
  • Шеф. Новая жизнь (2015) SATRip (сезон 3, серии 1-4 из 32) (обновляемая) скачать через торрент бесплатно
  • Шеф. Новая жизнь (2015) SATRip [H.264] (серии 1-4 из 32) (обновляемая) скачать через торрент бесплатно
  • Шеф. Новая жизнь (2015) HDTVRip [H.264 / 720p-LQ] (сезон 3, серии 1-32 из 32) скачать через торрент бесплатно
  • Шеф. Новая жизнь (2015) HDTVRip [H.264] (сезон 3, серии 1-32 из 32) скачать через торрент бесплатно
  • Шеф.Новая жизнь (2015) HDTVRip (сезон 3, серий 1-32 из 32)
  • Новая жизнь (2013) SATRip (серии 1-6 из 10) (обновляемая)
  • Новая жизнь (2013) SATRip [H.264] (серии 1-4 из 10) (обновляемая)


    • Комментарии (0):

      Информация

      Информация

        Посетители, находящиеся в группе Гости, не могут оставлять комментарии в данной новости.

        ↓ Меню




        ↓ Опрос

        Вы добавили сайт в закладки?
        Да
        Нет


        Популярное