.
Авторизация | Регистрация
bitok.xyz
» » Клаус / Klaus (2019) WEB-DLRip [H.264] торрент скачать бесплатно


    Клаус / Klaus (2019) WEB-DLRip [H.264] торрент скачать бесплатно

    Дата: 21-11-2019, 05:00 | .torrent скачали: 2

    Клаус / Klaus (2019) WEB-DLRip [H.264]Производство: Испания/The SPA Studios, Aniventure, Atresmedia Cine
    Жанр: Мультфильм, семейный, комедия, приключения
    Режиссер: Серджо Паблос

    Описание

    Молодого почтальона отправляют на работу в заснеженную деревушку с крайне недружелюбными и негостеприимными жителями. Там он встречает странного создателя игрушек, и между ними завязывается необычная дружба.

    Рейтинг MPAA: PG (рекомендуется присутствие родителей)
    Дата мировой премьеры: 8 ноября 2019
    Релиз от: OlLanDGroup
    Продолжительность: 01: 38: 03
    Качество видео: WEB-DLRip
    Перевод: Дублированный (Невафильм)
    Субтитры: Русские (Forced, Full), Английские (Full, SDH)
    Видео: AVC/H.264, 720x388, ~996 kbps
    Аудио: AAC, 2 ch, 64 kbps
    General
    Unique ID : 225411271253936227433006812092923541816 (0xA994A1B7D07BA5B211DA220032E67938)
    Complete name : D: OlLanDGroupKlaus.2019.NF.WEB-DLRip(AVC).745Mb.OlLanDGroup.mkv
    Format : Matroska
    Format version : Version 4
    File size : 743 MiB
    Duration : 1 h 38 min
    Overall bit rate : 1 059 kb/s
    Movie name : Klaus.2019.NF.WEB-DLRip(AVC).745Mb.OlLanDGroup#Skandar#
    Encoded date : UTC 2019-11-16 01: 23: 34
    Writing application : mkvmerge v31.0.0 (\'Dolores In A Shoestand\') 64-bit
    Writing library : libebml v1.3.6 + libmatroska v1.4.9
    Video
    ID : 1
    Format : AVC
    Format/Info : Advanced Video Codec
    Format profile : High@L4.1
    Format settings : CABAC/10 Ref Frames
    Format settings, CABAC : Yes
    Format settings, ReFrames : 10 frames
    Codec ID : V_MPEG4/ISO/AVC
    Duration : 1 h 38 min
    Bit rate : 996 kb/s
    Width : 720 pixels
    Height : 388 pixels
    Display aspect ratio : 1.85: 1
    Frame rate mode : Constant
    Frame rate : 24.000 FPS
    Color space : YUV
    Chroma subsampling : 4: 2: 0
    Bit depth : 8 bits
    Scan type : Progressive
    Bits/(Pixel*Frame) : 0.149
    Stream size : 696 MiB (94%)
    Title : Klaus.2019.NF.WEB-DLRip(AVC).745Mb.OlLanDGroup#Skandar#
    Writing library : x264 core 146 r2538 121396c
    Encoding settings : cabac=1/ref=10/deblock=1: -3: -3/analyse=0x3: 0x133/me=umh/subme=11/psy=1/psy_rd=0.97: 0.05/mixed_ref=1/me_range=48/chroma_me=1/trellis=2/8x8dct=1/cqm=0/deadzone=21, 11/fast_pskip=0/chroma_qp_offset=-3/threads=6/lookahead_threads=1/sliced_threads=0/nr=0/decimate=0/interlaced=0/bluray_compat=0/constrained_intra=0/bframes=11/b_pyramid=2/b_adapt=2/b_bias=0/direct=3/weightb=1/open_gop=0/weightp=2/keyint=240/keyint_min=23/scenecut=40/intra_refresh=0/rc_lookahead=40/rc=2pass/mbtree=0/bitrate=996/ratetol=1.0/qcomp=0.60/qpmin=0/qpmax=69/qpstep=4/cplxblur=20.0/qblur=0.5/vbv_maxrate=50000/vbv_bufsize=62500/nal_hrd=none/filler=0/ip_ratio=1.40/pb_ratio=1.30/aq=1: 1.00
    Language : English
    Default : Yes
    Forced : No
    Audio
    ID : 2
    Format : AAC LC SBR
    Format/Info : Advanced Audio Codec Low Complexity with Spectral Band Replication
    Commercial name : HE-AAC
    Format settings : Explicit
    Codec ID : A_AAC-2
    Duration : 1 h 38 min
    Bit rate : 64.0 kb/s
    Channel(s) : 2 channels
    Channel layout : L R
    Sampling rate : 48.0 kHz
    Frame rate : 23.438 FPS (2048 SPF)
    Compression mode : Lossy
    Delay relative to video : 31 ms
    Stream size : 44.9 MiB (6%)
    Title : DUB (Невафильм)
    Language : Russian
    Default : Yes
    Forced : No
    Text #1
    ID : 3
    Format : UTF-8
    Codec ID : S_TEXT/UTF8
    Codec ID/Info : UTF-8 Plain Text
    Duration : 1 h 36 min
    Bit rate : 0 b/s
    Count of elements : 13
    Stream size : 402 Bytes (0%)
    Title : Forced
    Language : Russian
    Default : Yes
    Forced : No
    Text #2
    ID : 4
    Format : UTF-8
    Codec ID : S_TEXT/UTF8
    Codec ID/Info : UTF-8 Plain Text
    Duration : 1 h 36 min
    Bit rate : 81 b/s
    Count of elements : 1219
    Stream size : 57.9 KiB (0%)
    Title : Full
    Language : Russian
    Default : No
    Forced : No
    Text #3
    ID : 5
    Format : UTF-8
    Codec ID : S_TEXT/UTF8
    Codec ID/Info : UTF-8 Plain Text
    Duration : 1 h 32 min
    Bit rate : 63 b/s
    Count of elements : 1352
    Stream size : 42.8 KiB (0%)
    Language : English
    Default : No
    Forced : No
    Text #4
    ID : 6
    Format : UTF-8
    Codec ID : S_TEXT/UTF8
    Codec ID/Info : UTF-8 Plain Text
    Duration : 1 h 32 min
    Bit rate : 72 b/s
    Count of elements : 1634
    Stream size : 49.2 KiB (0%)
    Title : SDH
    Language : English
    Default : No
    Forced : No

    Скриншоты для ознакомления



    Все одноименные релизы в Клубе
    Время раздачи: 24/7 (круглосуточно) (до появления первых 3-5 скачавших)

    Онлайн видео Клаус



    Клаус/Klaus (2019) WEB-DLRip [H.264]
    Рейтинг →
     (голосов: 1, оценка 3/5, голосовать можно 1 раз )

    Другие торренты по теме:

  • Клаус / Klaus (2019) WEB-DLRip
  • Клаус / Klaus (2019) WEB-DL [H.264 / 1080p-LQ]
  • Клаус / Klaus (2019) WEB-DLRip [H.264]


    • Комментарии (0):

      Информация

      Информация

        Посетители, находящиеся в группе Гости, не могут оставлять комментарии в данной новости.

        ↓ Меню




        ↓ Опрос

        Вы добавили сайт в закладки?
        Да
        Нет


        Популярное