.
Авторизация | Регистрация
bitok.xyz
» » Дора и Затерянный город / Dora and the Lost City of Gold (2019) BDRip [H.264 / 1080p] торрент скачать бесплатно


    Дора и Затерянный город / Dora and the Lost City of Gold (2019) BDRip [H.264 / 1080p] торрент скачать бесплатно

    Дата: 23-11-2019, 05:00 | .torrent скачали: 0

    Дора и Затерянный город / Dora and the Lost City of Gold (2019) BDRip [H.264 / 1080p]Производство: США, Мексика, Австралия/Paramount Players, Walden Media, Screen Queensland
    Жанр: Приключения, семейный
    Режиссер: Джеймс Бобин
    Продюсер: Кристин Барр, Эухенио Дербес, Джулия Пистор

    Актеры
    Изабела Мерсед, Эухенио Дербес, Майкл Пенья, Ева Лонгория, Джеффри Уолберг, Николас Кумбе, Мадлен Мэдден, Темуэра Моррисон, Бенисио Дель Торо, Мэдлин Миранда

    Описание
    Практически все детство Дора провела в джунглях, где работали ее родители-исследователи. Но никакие прежние приключения не могли подготовить девушку к опасностям старшей школы — непониманию, соперничеству, зависти. Вдобавок таинственным образом исчезают родители Доры. Но она не была бы собой, если бы опустила руки. Первая любовь, а также старые и новые друзья вдохновляют смелую девушку отправиться на поиски родных. На пути к цели их ждет масса испытаний, а также леденящая кровь загадка потерянной цивилизации…

    Возраст: 6+ Зрителям, достигшим 6 лет
    Рейтинг MPAA: PG Рекомендуется присудствие родителей
    Дата мировой премьеры: 2 августа 2019
    Дата российской премьеры: 8 августа 2019, Централ Партнершип
    Цифровой релиз: 21 ноября 2019, Paramount
    Релиз от: SergeyAms
    Продолжительность: 01: 42: 27
    Качество видео: BDRip
    Перевод: Дублированный(iTunes)
    Субтитры: Русские (форс., полные), украинские (форс., полные), английские (форс., полные)
    Видео: AVC/H.264, 1920x1080, ~10 Mbps
    Аудио #1 : AC3, 2.0 ch, 192 Kbps - Русский
    Аудио #2 : AC3, 6 ch, 384 Kbps - Украинский
    Аудио #3 : AC3, 6 ch, 640 Kbps - Английский
    x264 info: frame I: 1630 Avg QP: 16.11 size: 308104
    x264 info: frame P: 41401 Avg QP: 18.36 size: 95576
    x264 info: frame B: 104353 Avg QP: 19.79 size: 30883
    Unique ID : 110306809610397255060259828077315599130 (0x52FC519AE69A99F84FD0643234E1AB1A)
    Complete name : D: TempNNMDora.and.the.Lost.City.of.Gold.1080p.mkv
    Format : Matroska
    Format version : Version 4/Version 2
    File size : 8.03 GiB
    Duration : 1h 42mn
    Overall bit rate : 11.2 Mbps
    Movie name : Dora and the Lost City of Gold BDRemux
    Writing library : Lavf57.71.100
    Video
    ID : 1
    Format : AVC
    Format/Info : Advanced Video Codec
    Format profile : High@L4.1
    Format settings, CABAC : Yes
    Format settings, ReFrames : 4 frames
    Codec ID : V_MPEG4/ISO/AVC
    Duration : 1h 42mn
    Bit rate : 10 000 Kbps
    Width : 1 920 pixels
    Height : 1 080 pixels
    Display aspect ratio : 16: 9
    Frame rate mode : Constant
    Frame rate : 23.976 fps
    Color space : YUV
    Chroma subsampling : 4: 2: 0
    Bit depth : 8 bits
    Scan type : Progressive
    Bits/(Pixel*Frame) : 0.201
    Stream size : 7.00 GiB (87%)
    Writing library : x264 core 157 r2935 545de2f
    Encoding settings : cabac=1/ref=4/deblock=1: -3: -3/analyse=0x3: 0x113/me=umh/subme=10/psy=1/psy_rd=1.05: 0.10/mixed_ref=1/me_range=24/chroma_me=1/trellis=2/8x8dct=1/cqm=0/deadzone=21, 11/fast_pskip=0/chroma_qp_offset=-3/threads=5/lookahead_threads=1/sliced_threads=0/nr=0/decimate=0/interlaced=0/bluray_compat=0/constrained_intra=0/bframes=6/b_pyramid=2/b_adapt=2/b_bias=0/direct=1/weightb=1/open_gop=0/weightp=2/keyint=240/keyint_min=24/scenecut=40/intra_refresh=0/rc=2pass/mbtree=0/bitrate=10000/ratetol=1.0/qcomp=0.70/qpmin=3/qpmax=69/qpstep=4/cplxblur=20.0/qblur=0.5/ip_ratio=1.40/pb_ratio=1.30/aq=2: 1.00
    Language : English
    Default : Yes
    Forced : No
    Audio #1
    ID : 2
    Format : AC-3
    Format/Info : Audio Coding 3
    Mode extension : CM (complete main)
    Format settings, Endianness : Big
    Codec ID : A_AC3
    Duration : 1h 42mn
    Bit rate mode : Constant
    Bit rate : 192 Kbps
    Channel(s) : 2 channels
    Channel positions : Front: L R
    Sampling rate : 48.0 KHz
    Bit depth : 16 bits
    Compression mode : Lossy
    Stream size : 141 MiB (2%)
    Title : Russian Dub iTunes
    Language : Russian
    Default : Yes
    Forced : No
    Audio #2
    ID : 3
    Format : AC-3
    Format/Info : Audio Coding 3
    Mode extension : CM (complete main)
    Format settings, Endianness : Big
    Codec ID : A_AC3
    Duration : 1h 42mn
    Bit rate mode : Constant
    Bit rate : 384 Kbps
    Channel(s) : 6 channels
    Channel positions : Front: L C R, Side: L R, LFE
    Sampling rate : 48.0 KHz
    Bit depth : 16 bits
    Compression mode : Lossy
    Stream size : 281 MiB (3%)
    Title : Ukrainian Dub iTunes
    Language : Ukrainian
    Default : No
    Forced : No
    Audio #3
    ID : 4
    Format : AC-3
    Format/Info : Audio Coding 3
    Mode extension : CM (complete main)
    Format settings, Endianness : Big
    Codec ID : A_AC3
    Duration : 1h 42mn
    Bit rate mode : Constant
    Bit rate : 640 Kbps
    Channel(s) : 6 channels
    Channel positions : Front: L C R, Side: L R, LFE
    Sampling rate : 48.0 KHz
    Bit depth : 16 bits
    Compression mode : Lossy
    Stream size : 469 MiB (6%)
    Title : English Original AC-3
    Language : English
    Default : No
    Forced : No
    Text #1
    ID : 5
    Format : UTF-8
    Codec ID : S_TEXT/UTF8
    Codec ID/Info : UTF-8 Plain Text
    Title : Russian forced
    Language : Russian
    Default : Yes
    Forced : Yes
    Text #2
    ID : 6
    Format : UTF-8
    Codec ID : S_TEXT/UTF8
    Codec ID/Info : UTF-8 Plain Text
    Title : Russian full
    Language : Russian
    Default : Yes
    Forced : No
    Text #3
    ID : 7
    Format : UTF-8
    Codec ID : S_TEXT/UTF8
    Codec ID/Info : UTF-8 Plain Text
    Title : Ukrainian forced
    Language : Ukrainian
    Default : No
    Forced : No
    Text #4
    ID : 8
    Format : UTF-8
    Codec ID : S_TEXT/UTF8
    Codec ID/Info : UTF-8 Plain Text
    Title : Ukrainian full
    Language : Ukrainian
    Default : No
    Forced : No
    Text #5
    ID : 9
    Format : UTF-8
    Codec ID : S_TEXT/UTF8
    Codec ID/Info : UTF-8 Plain Text
    Title : English forced
    Language : English
    Default : No
    Forced : No
    Text #6
    ID : 10
    Format : UTF-8
    Codec ID : S_TEXT/UTF8
    Codec ID/Info : UTF-8 Plain Text
    Title : English full
    Language : English
    Default : No
    Forced : No
    Menu
    00: 00: 00.000 : : Chapter 01
    00: 04: 52.417 : : Chapter 02
    00: 09: 49.088 : : Chapter 03
    00: 15: 35.643 : : Chapter 04
    00: 20: 26.767 : : Chapter 05
    00: 25: 47.837 : : Chapter 06
    00: 35: 15.780 : : Chapter 07
    00: 42: 53.737 : : Chapter 08
    00: 47: 13.664 : : Chapter 09
    00: 52: 57.883 : : Chapter 10
    00: 55: 41.463 : : Chapter 11
    01: 01: 02.659 : : Chapter 12
    01: 06: 11.300 : : Chapter 13
    01: 10: 23.135 : : Chapter 14
    01: 13: 52.136 : : Chapter 15
    01: 18: 26.326 : : Chapter 16
    01: 22: 39.496 : : Chapter 17
    01: 32: 57.321 : : Chapter 18
    01: 38: 30.237 : : Chapter 19

    Скриншоты для ознакомления



    Все одноименные релизы в Клубе
    Время раздачи: 24/7 (круглосуточно) (до появления первых 3-5 скачавших)

    Онлайн видео Дора и Затерянный город



    Дора и Затерянный город/Dora and the Lost City of Gold (2019) BDRip [H.264/1080p]
    Рейтинг →
     (голосов: 1, оценка 3/5, голосовать можно 1 раз )

    Другие торренты по теме:

  • Дора и Затерянный город / Dora and the Lost City of Gold (2019) BDRip [H.264]
  • Дора и Затерянный город / Dora and the Lost City of Gold (2019) WEB-DLRip [H.264 / 1080p-LQ] [Line, AD]
  • Дора и Затерянный город / Dora and the Lost City of Gold (2019) BDRip [H.264 / 720p]
  • Дора и Затерянный город / Dora and the Lost City of Gold (2019) BDRemux [H.264 / 1080p]
  • Дора и Затерянный город / Dora and the Lost City of Gold (2019) BDRip [H.264]
  • Дора и Затерянный город / Dora and the Lost City of Gold (2019) BDRemux [H.264 / 1080p]


    • Комментарии (0):

      Информация

      Информация

        Посетители, находящиеся в группе Гости, не могут оставлять комментарии в данной новости.

        ↓ Меню




        ↓ Опрос

        Вы добавили сайт в закладки?
        Да
        Нет


        Популярное

        Малышарики (2015-2019) WEB-DL [H.264 / 1080p-LQ] (серии 1-154 из 208) [Обновляемая]

        (скачиваний: 106)
        Футурама / Futurama (1999-2013) DVDRip (7 Сезонов, 140 серии) скачать через торрент бесплатно

        (скачиваний: 102)
        Рик и Морти / Rick and Morty (2015) WEB-DL [H.264 / 1080p] (Сезон 2, серии 1-10 из 10) Сыендук [EN / RU Sub] скачать через торрент бесплатно

        (скачиваний: 64)
        Жила-была царевна (2015-2019) WEB-DLRip [H.264 / 720p-LQ] (сезон 1, серии 1-18 из 26) [Обновляемая]

        (скачиваний: 58)
        Металионы / Metalions (2018-2019) WEB-DLRip [H.264 / 720p-LQ] (сезон 1, серии 1-52 из 52) [Обновляемая]

        (скачиваний: 47)
        В гостях у сказки (сборник 56 фильмов) (1939-2009) DVDRip

        (скачиваний: 42)
        Рик и Морти / Rick and Morty (2013) BDRip [H.264 / 720p-LQ] (сезон 1, серии 1-11 из 11) Сыендук

        (скачиваний: 42)
        Рик и Морти / Rick and Morty (2013) BDRip [H.264 / 1080p] (Сезон 1, серии 1-11 из 11) Сыендук [EN Sub] скачать через торрент бесплатно

        (скачиваний: 41)
        Три кота (2018) WEB-DLRip [H.264 / 720p-LQ] (сезон 3, серии 105-106 из 156)

        (скачиваний: 38)
        Королевская академия / Regal Academy (2016) SATRip [H.264] (Сезон 1, 26 серий из 26) [UKR]

        (скачиваний: 25)