.
Авторизация | Регистрация
bitok.xyz
» » Дора и Затерянный город / Dora and the Lost City of Gold (2019) BDRip [H.264 / 720p] торрент скачать бесплатно


    Дора и Затерянный город / Dora and the Lost City of Gold (2019) BDRip [H.264 / 720p] торрент скачать бесплатно

    Дата: 23-11-2019, 05:00 | .torrent скачали: 3

    Дора и Затерянный город / Dora and the Lost City of Gold (2019) BDRip [H.264 / 720p]Производство: США, Мексика, Австралия/Paramount Players, Walden Media, Screen Queensland
    Жанр: приключения, семейный
    Режиссер: Джеймс Бобин

    Актеры
    Изабела Монер, Эухенио Дербес, Майкл Пенья, Ева Лонгория, Джеффри Уолберг, Николас Кумбе, Мадлен Мэдден, Темуэра Моррисон, Бенисио Дель Торо, Дэнни Трехо, Мэдлин Миранда

    Описание

    Практически все детство Дора провела в джунглях, где работали ее родители-исследователи. Но никакие прежние приключения не могли подготовить девушку к опасностям старшей школы — непониманию, соперничеству, зависти. Вдобавок таинственным образом исчезают родители Доры. Но она не была бы собой, если бы опустила руки. Первая любовь, а также старые и новые друзья вдохновляют смелую девушку отправиться на поиски родных. На пути к цели их ждет масса испытаний, а также леденящая кровь загадка потерянной цивилизации…

    Возраст: 6+ (зрителям, достигшим 6 лет)
    Рейтинг MPAA: PG (рекомендуется присутствие родителей)
    Дата мировой премьеры: 2 августа 2019
    Дата российской премьеры: 8 августа 2019
    Продолжительность: 01: 42: 27
    Качество видео: BDRip
    Перевод: дублированный (iTunes)
    Субтитры: Русские, английские
    Видео: AVC/H.264, 1280x720, ~5208 kbps
    Аудио: AC3, 2 ch, 192 kbps, Русский (DUB iTunes)
    Аудио: AC3, 6 ch, 448 kbps, Английский
    Общее
    Уникальный идентификатор : 189967229822279921421309860972792239786 (0x8EEA5B8E14334AC39714B9E6991DD6AA)
    Полное имя : D: FILMSZALIVDora.i.Zateryannyi.Gorod.2019.Dual.BDRip.720p.mkv
    Формат : Matroska
    Версия формата : Version 4
    Размер файла : 4, 19 Гбайт
    Продолжительность : 1 ч. 42 м.
    Общий поток : 5850 Кбит/сек
    Название фильма : Dora and the Lost City of Gold (2019)
    Дата кодирования : UTC 2019-11-21 04: 26: 37
    Программа кодирования : mkvmerge v38.0.0 (\'The Silent Type\') 64-bit
    Библиотека кодирования : libebml v1.3.9 + libmatroska v1.5.2
    Видео
    Идентификатор : 1
    Формат : AVC
    Формат/Информация : Advanced Video Codec
    Профиль формата : High@L4.1
    Настройки формата : CABAC/9 Ref Frames
    Параметр CABAC формата : Да
    Параметр RefFrames формата : 9 кадров
    Идентификатор кодека : V_MPEG4/ISO/AVC
    Продолжительность : 1 ч. 42 м.
    Битрейт : 5208 Кбит/сек
    Ширина : 1280 пикселей
    Высота : 720 пикселей
    Соотношение сторон : 16: 9
    Режим частоты кадров : Постоянный
    Частота кадров : 23, 976 (24000/1001) кадра/сек
    Цветовое пространство : YUV
    Субдискретизация насыщенности : 4: 2: 0
    Битовая глубина : 8 бит
    Тип развёртки : Прогрессивная
    Бит/(Пиксели*Кадры) : 0.236
    Размер потока : 3, 73 Гбайт (89%)
    Заголовок : potroks
    Библиотека кодирования : x264 core 157 r2958 57baac4
    Настройки программы : cabac=1/ref=9/deblock=1: -3: -3/analyse=0x3: 0x133/me=umh/subme=11/psy=1/psy_rd=1.05: 0.05/mixed_ref=1/me_range=48/chroma_me=1/trellis=2/8x8dct=1/cqm=0/deadzone=21, 11/fast_pskip=0/chroma_qp_offset=-3/threads=9/lookahead_threads=2/sliced_threads=0/nr=0/decimate=0/interlaced=0/bluray_compat=0/constrained_intra=0/bframes=11/b_pyramid=2/b_adapt=2/b_bias=0/direct=3/weightb=1/open_gop=0/weightp=2/keyint=240/keyint_min=23/scenecut=40/intra_refresh=0/rc_lookahead=100/rc=2pass/mbtree=0/bitrate=5208/ratetol=1.0/qcomp=0.70/qpmin=0/qpmax=69/qpstep=4/cplxblur=20.0/qblur=0.5/vbv_maxrate=50000/vbv_bufsize=62500/nal_hrd=none/filler=0/ip_ratio=1.40/pb_ratio=1.25/aq=1: 0.70
    Язык : English
    Default : Да
    Forced : Нет
    Аудио #1
    Идентификатор : 2
    Формат : AC-3
    Формат/Информация : Audio Coding 3
    Коммерческое название : Dolby Digital
    Идентификатор кодека : A_AC3
    Продолжительность : 1 ч. 42 м.
    Вид битрейта : Постоянный
    Битрейт : 192 Кбит/сек
    Каналы : 2 канала
    ChannelLayout : L R
    Частота : 48, 0 КГц
    Частота кадров : 31, 250 кадров/сек (1536 SPF)
    Метод сжатия : С потерями
    Размер потока : 141 Мбайт (3%)
    Заголовок : Dub | DD 2.0 @ 192 kbps - iTunes
    Язык : Russian
    ServiceKind/String : Complete Main
    Default : Да
    Forced : Нет
    Аудио #2
    Идентификатор : 3
    Формат : AC-3
    Формат/Информация : Audio Coding 3
    Коммерческое название : Dolby Digital
    Идентификатор кодека : A_AC3
    Продолжительность : 1 ч. 42 м.
    Вид битрейта : Постоянный
    Битрейт : 448 Кбит/сек
    Каналы : 6 каналов
    ChannelLayout : L R C LFE Ls Rs
    Частота : 48, 0 КГц
    Частота кадров : 31, 250 кадров/сек (1536 SPF)
    Метод сжатия : С потерями
    Размер потока : 328 Мбайт (8%)
    Заголовок : Original | DD 5.1 @ 448 kbps
    Язык : English
    ServiceKind/String : Complete Main
    Default : Нет
    Forced : Нет
    Текст #1
    Идентификатор : 4
    Формат : UTF-8
    Идентификатор кодека : S_TEXT/UTF8
    Идентификатор кодека/Информация : UTF-8 Plain Text
    Продолжительность : 1 ч. 37 м.
    Битрейт : 1 бит/сек
    ElementCount : 29
    Размер потока : 1, 12 Кбайт (0%)
    Заголовок : Forced
    Язык : Russian
    Default : Да
    Forced : Нет
    Текст #2
    Идентификатор : 5
    Формат : UTF-8
    Идентификатор кодека : S_TEXT/UTF8
    Идентификатор кодека/Информация : UTF-8 Plain Text
    Продолжительность : 1 ч. 41 м.
    Битрейт : 88 бит/сек
    ElementCount : 1414
    Размер потока : 65, 7 Кбайт (0%)
    Заголовок : iTunes
    Язык : Russian
    Default : Нет
    Forced : Нет
    Текст #3
    Идентификатор : 6
    Формат : UTF-8
    Идентификатор кодека : S_TEXT/UTF8
    Идентификатор кодека/Информация : UTF-8 Plain Text
    Продолжительность : 1 ч. 32 м.
    Битрейт : 0 бит/сек
    ElementCount : 24
    Размер потока : 554 байт (0%)
    Заголовок : Forced
    Язык : English
    Default : Нет
    Forced : Нет
    Текст #4
    Идентификатор : 7
    Формат : UTF-8
    Идентификатор кодека : S_TEXT/UTF8
    Идентификатор кодека/Информация : UTF-8 Plain Text
    Продолжительность : 1 ч. 36 м.
    Битрейт : 58 бит/сек
    ElementCount : 1380
    Размер потока : 41, 0 Кбайт (0%)
    Заголовок : Full
    Язык : English
    Default : Нет
    Forced : Нет
    Текст #5
    Идентификатор : 8
    Формат : UTF-8
    Идентификатор кодека : S_TEXT/UTF8
    Идентификатор кодека/Информация : UTF-8 Plain Text
    Продолжительность : 1 ч. 41 м.
    Битрейт : 67 бит/сек
    ElementCount : 1691
    Размер потока : 50, 6 Кбайт (0%)
    Заголовок : SDH
    Язык : English
    Default : Нет
    Forced : Нет
    Меню
    00: 00: 00.000 : en: Chapter 01
    00: 04: 52.417 : en: Chapter 02
    00: 09: 49.088 : en: Chapter 03
    00: 15: 35.643 : en: Chapter 04
    00: 20: 26.767 : en: Chapter 05
    00: 25: 47.837 : en: Chapter 06
    00: 35: 15.780 : en: Chapter 07
    00: 42: 53.737 : en: Chapter 08
    00: 47: 13.664 : en: Chapter 09
    00: 52: 57.883 : en: Chapter 10
    00: 55: 41.463 : en: Chapter 11
    01: 01: 02.659 : en: Chapter 12
    01: 06: 11.300 : en: Chapter 13
    01: 10: 23.135 : en: Chapter 14
    01: 13: 52.136 : en: Chapter 15
    01: 18: 26.326 : en: Chapter 16
    01: 22: 39.496 : en: Chapter 17
    01: 32: 57.321 : en: Chapter 18
    01: 38: 30.237 : en: Chapter 19

    Скриншоты для ознакомления



    Все одноименные релизы в Клубе
    Время раздачи: c 5 до 19 мск (до появления первых 3-5 скачавших)

    Онлайн видео Дора и Затерянный город



    Дора и Затерянный город/Dora and the Lost City of Gold (2019) BDRip [H.264/720p]
    Рейтинг →
     (голосов: 1, оценка 3/5, голосовать можно 1 раз )

    Другие торренты по теме:

  • Дора и Затерянный город / Dora and the Lost City of Gold (2019) WEB-DLRip [H.264 / 1080p-LQ] [Line, AD]
  • Дора и Затерянный город / Dora and the Lost City of Gold (2019) BDRip [H.264 / 1080p]
  • Дора и Затерянный город / Dora and the Lost City of Gold (2019) BDRemux [H.264 / 1080p]
  • Дора и Затерянный город / Dora and the Lost City of Gold (2019) BDRip [H.264]
  • Дора и Затерянный город / Dora and the Lost City of Gold (2019) BDRemux [H.264 / 1080p]


    • Комментарии (0):

      Информация

      Информация

        Посетители, находящиеся в группе Гости, не могут оставлять комментарии в данной новости.

        ↓ Меню




        ↓ Опрос

        Вы добавили сайт в закладки?
        Да
        Нет


        Популярное