.
Авторизация | Регистрация
bitok.xyz
» » Дора и Затерянный город / Dora and the Lost City of Gold (2019) BDRemux [H.264 / 1080p] торрент скачать бесплатно


    Дора и Затерянный город / Dora and the Lost City of Gold (2019) BDRemux [H.264 / 1080p] торрент скачать бесплатно

    Дата: 23-11-2019, 05:00 | .torrent скачали: 4

    Дора и Затерянный город / Dora and the Lost City of Gold (2019) BDRemux [H.264 / 1080p]Производство: США, Мексика, Австралия/Paramount Players, Walden Media, Screen Queensland
    Жанр: Приключения, семейный
    Режиссер: Джеймс Бобин
    Продюсер: Кристин Барр, Эухенио Дербес, Джулия Пистор

    Актеры
    Изабела Мерсед, Эухенио Дербес, Майкл Пенья, Ева Лонгория, Джеффри Уолберг, Николас Кумбе, Мадлен Мэдден, Темуэра Моррисон, Бенисио Дель Торо, Мэдлин Миранда

    Описание
    Практически все детство Дора провела в джунглях, где работали ее родители-исследователи. Но никакие прежние приключения не могли подготовить девушку к опасностям старшей школы — непониманию, соперничеству, зависти. Вдобавок таинственным образом исчезают родители Доры. Но она не была бы собой, если бы опустила руки. Первая любовь, а также старые и новые друзья вдохновляют смелую девушку отправиться на поиски родных. На пути к цели их ждет масса испытаний, а также леденящая кровь загадка потерянной цивилизации…

    Возраст: 6+ Зрителям, достигшим 6 лет
    Рейтинг MPAA: PG Рекомендуется присудствие родителей
    Дата мировой премьеры: 2 августа 2019
    Дата российской премьеры: 8 августа 2019, Централ Партнершип
    Цифровой релиз: 21 ноября 2019, Paramount
    Релиз от: NNMClub
    Продолжительность: 01: 42: 27
    Качество видео: BDRemux 1080p
    Перевод: Дублированный(iTunes)
    Субтитры: Русские (Forced+Full), Украинские (Forced+Full), Английские (Forced+Full)
    Видео: AVC/H.264, 1920x1080, 27.9 Mbps, 23.976 fps
    Аудио 1 : AC-3, 2.0 ch, 192 Kbps | Русский Dub iTunes
    Аудио 2 : AC-3, 6 ch, 384 Kbps | Украинский Dub iTunes
    Аудио 3 : TrueHD, 8.0 ch, 4404 Kbps | Английский
    Аудио 4 : AC-3, 6 ch, 640 Kbps | Английский
    General
    Unique ID : 329270963054127254736678736489929116296 (0xF7B747DFA55E53A9211E291883920A88)
    Complete name : /Volumes/Promise 2/Dora.and.the.Lost.City.of.Gold.BDRemux.1080p.pk.mkv
    Format : Matroska
    Format version : Version 4
    File size : 24.0 GiB
    Duration : 1h 42mn
    Overall bit rate mode : Variable
    Overall bit rate : 33.6 Mbps
    Movie name : Dora and the Lost City of Gold BDRemux 1080p pk
    Encoded date : UTC 2019-11-21 08: 22: 46
    Writing application : mkvmerge v40.0.0 (\'Old Town Road + Pony\') 64-bit
    Writing library : libebml v1.3.9 + libmatroska v1.5.2
    Cover : Yes
    Attachments : cover.jpg
    Video
    ID : 1
    Format : AVC
    Format/Info : Advanced Video Codec
    Format profile : High@L4.1
    Format settings : CABAC/4 Ref Frames
    Format settings, CABAC : Yes
    Format settings, ReFrames : 4 frames
    Codec ID : V_MPEG4/ISO/AVC
    Duration : 1h 42mn
    Bit rate mode : Variable
    Bit rate : 27.9 Mbps
    Maximum bit rate : 31.1 Mbps
    Width : 1 920 pixels
    Height : 1 080 pixels
    Display aspect ratio : 16: 9
    Frame rate mode : Constant
    Frame rate : 23.976 (24000/1001) fps
    Color space : YUV
    Chroma subsampling : 4: 2: 0
    Bit depth : 8 bits
    Scan type : Progressive
    Bits/(Pixel*Frame) : 0.561
    Stream size : 19.9 GiB (83%)
    Language : English
    Default : Yes
    Forced : No
    Audio #1
    ID : 2
    Format : AC-3
    Format/Info : Audio Coding 3
    Commercial name : Dolby Digital
    Codec ID : A_AC3
    Duration : 1h 42mn
    Bit rate mode : Constant
    Bit rate : 192 Kbps
    Channel(s) : 2 channels
    Channel layout : L R
    Sampling rate : 48.0 KHz
    Frame rate : 31.250 fps (1536 SPF)
    Compression mode : Lossy
    Stream size : 141 MiB (1%)
    Title : Russian Dub iTunes
    Language : Russian
    Service kind : Complete Main
    Default : Yes
    Forced : No
    Audio #2
    ID : 3
    Format : AC-3
    Format/Info : Audio Coding 3
    Commercial name : Dolby Digital
    Codec ID : A_AC3
    Duration : 1h 42mn
    Bit rate mode : Constant
    Bit rate : 384 Kbps
    Channel(s) : 6 channels
    Channel layout : L R C LFE Ls Rs
    Sampling rate : 48.0 KHz
    Frame rate : 31.250 fps (1536 SPF)
    Compression mode : Lossy
    Stream size : 281 MiB (1%)
    Title : Ukrainian Dub iTunes
    Language : Ukrainian
    Service kind : Complete Main
    Default : No
    Forced : No
    Audio #3
    ID : 4
    Format : MLP FBA 16-ch
    Format/Info : Meridian Lossless Packing FBA with 16-channel presentation
    Commercial name : Dolby TrueHD with Dolby Atmos
    Codec ID : A_TRUEHD
    Duration : 1h 42mn
    Bit rate mode : Variable
    Bit rate : 4 404 Kbps
    Maximum bit rate : 7 182 Kbps
    Channel(s) : 8 channels
    Channel layout : L R C LFE Ls Rs Lb Rb
    Sampling rate : 48.0 KHz
    Frame rate : 1 200.000 fps (40 SPF)
    Compression mode : Lossless
    Stream size : 3.15 GiB (13%)
    Title : English Original TrueHD
    Language : English
    Default : No
    Forced : No
    Number of dynamic objects : 11
    Bed channel count : 1 channel
    Bed channel configuration : LFE
    Audio #4
    ID : 5
    Format : AC-3
    Format/Info : Audio Coding 3
    Commercial name : Dolby Digital
    Codec ID : A_AC3
    Duration : 1h 42mn
    Bit rate mode : Constant
    Bit rate : 640 Kbps
    Channel(s) : 6 channels
    Channel layout : L R C LFE Ls Rs
    Sampling rate : 48.0 KHz
    Frame rate : 31.250 fps (1536 SPF)
    Compression mode : Lossy
    Stream size : 469 MiB (2%)
    Title : English Original AC-3
    Language : English
    Service kind : Complete Main
    Default : No
    Forced : No
    Text #1
    ID : 6
    Format : UTF-8
    Codec ID : S_TEXT/UTF8
    Codec ID/Info : UTF-8 Plain Text
    Duration : 1h 37mn
    Bit rate : 1 bps
    Count of elements : 29
    Stream size : 1.12 KiB (0%)
    Title : Russian forced
    Language : Russian
    Default : Yes
    Forced : Yes
    Text #2
    ID : 7
    Format : UTF-8
    Codec ID : S_TEXT/UTF8
    Codec ID/Info : UTF-8 Plain Text
    Duration : 1h 41mn
    Bit rate : 88 bps
    Count of elements : 1414
    Stream size : 65.7 KiB (0%)
    Title : Russian full
    Language : Russian
    Default : No
    Forced : No
    Text #3
    ID : 8
    Format : UTF-8
    Codec ID : S_TEXT/UTF8
    Codec ID/Info : UTF-8 Plain Text
    Duration : 1h 40mn
    Bit rate : 1 bps
    Count of elements : 30
    Stream size : 1.10 KiB (0%)
    Title : Ukrainian forced
    Language : Ukrainian
    Default : No
    Forced : No
    Text #4
    ID : 9
    Format : UTF-8
    Codec ID : S_TEXT/UTF8
    Codec ID/Info : UTF-8 Plain Text
    Duration : 1h 41mn
    Bit rate : 80 bps
    Count of elements : 1414
    Stream size : 60.0 KiB (0%)
    Title : Ukrainian full
    Language : Ukrainian
    Default : No
    Forced : No
    Text #5
    ID : 10
    Format : UTF-8
    Codec ID : S_TEXT/UTF8
    Codec ID/Info : UTF-8 Plain Text
    Duration : 1h 32mn
    Bit rate : 0 bps
    Count of elements : 24
    Stream size : 550 Bytes (0%)
    Title : English forced
    Language : English
    Default : No
    Forced : No
    Text #6
    ID : 11
    Format : UTF-8
    Codec ID : S_TEXT/UTF8
    Codec ID/Info : UTF-8 Plain Text
    Duration : 1h 37mn
    Bit rate : 62 bps
    Count of elements : 1501
    Stream size : 44.5 KiB (0%)
    Title : English full
    Language : English
    Default : No
    Forced : No
    Text #7
    ID : 12
    Format : UTF-8
    Codec ID : S_TEXT/UTF8
    Codec ID/Info : UTF-8 Plain Text
    Duration : 1h 41mn
    Bit rate : 67 bps
    Count of elements : 1715
    Stream size : 50.1 KiB (0%)
    Title : English SDH
    Language : English
    Default : No
    Forced : No
    Menu
    00: 00: 00.000 : : Chapter 01
    00: 04: 52.417 : : Chapter 02
    00: 09: 49.088 : : Chapter 03
    00: 15: 35.643 : : Chapter 04
    00: 20: 26.767 : : Chapter 05
    00: 25: 47.837 : : Chapter 06
    00: 35: 15.780 : : Chapter 07
    00: 42: 53.737 : : Chapter 08
    00: 47: 13.664 : : Chapter 09
    00: 52: 57.883 : : Chapter 10
    00: 55: 41.463 : : Chapter 11
    01: 01: 02.659 : : Chapter 12
    01: 06: 11.300 : : Chapter 13
    01: 10: 23.135 : : Chapter 14
    01: 13: 52.136 : : Chapter 15
    01: 18: 26.326 : : Chapter 16
    01: 22: 39.496 : : Chapter 17
    01: 32: 57.321 : : Chapter 18
    01: 38: 30.237 : : Chapter 19

    Скриншоты для ознакомления



    Все одноименные релизы в Клубе
    Время раздачи: 24/7 (круглосуточно) (до появления первых 3-5 скачавших)

    Онлайн видео Дора и Затерянный город



    Дора и Затерянный город/Dora and the Lost City of Gold (2019) BDRemux [H.264/1080p]
    Рейтинг →
     (голосов: 1, оценка 3/5, голосовать можно 1 раз )

    Другие торренты по теме:

  • Дора и Затерянный город / Dora and the Lost City of Gold (2019) WEB-DLRip [H.264 / 1080p-LQ] [Line, AD]
  • Дора и Затерянный город / Dora and the Lost City of Gold (2019) BDRip [H.264 / 1080p]
  • Дора и Затерянный город / Dora and the Lost City of Gold (2019) BDRip [H.264 / 720p]
  • Дора и Затерянный город / Dora and the Lost City of Gold (2019) BDRip [H.264]
  • Дора и Затерянный город / Dora and the Lost City of Gold (2019) BDRemux [H.264 / 1080p]


    • Комментарии (0):

      Информация

      Информация

        Посетители, находящиеся в группе Гости, не могут оставлять комментарии в данной новости.

        ↓ Меню




        ↓ Опрос

        Вы добавили сайт в закладки?
        Да
        Нет


        Популярное