.
Авторизация | Регистрация
bitok.xyz
» » Наследство волшебника Бахрама (1975) WEB-DLRip [H.264] торрент скачать бесплатно


    Наследство волшебника Бахрама (1975) WEB-DLRip [H.264] торрент скачать бесплатно

    Дата: 24-11-2019, 05:00 | .torrent скачали: 3

    Наследство волшебника Бахрама (1975) WEB-DLRip [H.264]Производство: СССР, Союзмультфильм
    Жанр: Рисованная анимация, Детский
    Режиссер: Роман Качанов ст.

    Описание

    Мультипликационный фильм о том, как обыкновенную советскую школьницу Машу крадут подземный волшебник Бахрам и его слуга. Бахрам уже стар и ему нужен наследник для продолжения дела. А глупый слуга притащил девочку, которая ему еще и очень понравилась. Маша очень не хотела оставаться и не польстилась ни на чудеса, ни на волшебство, хотя подземный волшебник оказался неплохим человеком

    Возраст: 6+ (зрителям, достигшим 6 лет)
    Релиз от: lexx256 ®
    Продолжительность: 00: 19: 32
    Качество видео: WEB-DLRip
    Субтитры: отсутствуют
    Видео: AVC/H.264, 720x546, ~1961 Kbps
    Аудио: AC3, 2 ch, 192 Kbps
    General
    Unique ID : 156293221531587809689778996112008343667 (0x7594FAC37A20DBD0A9EED348D86EF073)
    Complete name : C: Наследство волшебника Бахрама-1975 (WEB-DLRip By lexx256).mkv
    Format : Matroska
    Format version : Version 4
    File size : 301 MiB
    Duration : 19 min 32 s
    Overall bit rate : 2 155 kb/s
    Encoded date : UTC 2019-11-23 11: 35: 18
    Writing application : mkvmerge v35.0.0 (\'All The Love In The World\') 64-bit
    Writing library : libebml v1.3.9 + libmatroska v1.5.2
    Video
    ID : 1
    Format : AVC
    Format/Info : Advanced Video Codec
    Format profile : High@L3.1
    Format settings : CABAC/9 Ref Frames
    Format settings, CABAC : Yes
    Format settings, ReFrames : 9 frames
    Codec ID : V_MPEG4/ISO/AVC
    Duration : 19 min 32 s
    Bit rate : 1 961 kb/s
    Nominal bit rate : 2 200 kb/s
    Width : 720 pixels
    Height : 546 pixels
    Display aspect ratio : 4: 3
    Frame rate mode : Constant
    Frame rate : 25.000 FPS
    Color space : YUV
    Chroma subsampling : 4: 2: 0
    Bit depth : 8 bits
    Scan type : Progressive
    Bits/(Pixel*Frame) : 0.200
    Stream size : 274 MiB (91%)
    Writing library : x264 core 157 r2958 57baac4
    Encoding settings : cabac=1/ref=9/deblock=1: 0: 0/analyse=0x3: 0x133/me=esa/subme=9/psy=1/psy_rd=1.00: 0.20/mixed_ref=1/me_range=24/chroma_me=1/trellis=1/8x8dct=1/cqm=0/deadzone=21, 11/fast_pskip=1/chroma_qp_offset=-3/threads=9/lookahead_threads=1/sliced_threads=0/nr=0/decimate=1/interlaced=0/bluray_compat=0/constrained_intra=0/bframes=9/b_pyramid=2/b_adapt=2/b_bias=0/direct=3/weightb=1/open_gop=0/weightp=2/keyint=250/keyint_min=25/scenecut=40/intra_refresh=0/rc_lookahead=40/rc=cbr/mbtree=1/bitrate=2200/ratetol=1.0/qcomp=0.60/qpmin=0/qpmax=69/qpstep=4/vbv_maxrate=2200/vbv_bufsize=1571/nal_hrd=none/filler=0/ip_ratio=1.40/aq=1: 1.00
    Language : Russian
    Default : Yes
    Forced : No
    Color range : Limited
    Matrix coefficients : BT.709
    Audio
    ID : 2
    Format : AC-3
    Format/Info : Audio Coding 3
    Commercial name : Dolby Digital
    Codec ID : A_AC3
    Duration : 19 min 32 s
    Bit rate mode : Constant
    Bit rate : 192 kb/s
    Channel(s) : 2 channels
    Channel layout : L R
    Sampling rate : 44.1 kHz
    Frame rate : 28.711 FPS (1536 SPF)
    Bit depth : 16 bits
    Compression mode : Lossy
    Stream size : 26.8 MiB (9%)
    Language : Russian
    Service kind : Complete Main
    Default : Yes
    Forced : No

    Скриншоты для ознакомления



    Все одноименные релизы в Клубе
    Время раздачи: До первых скачавших (до появления первых 3-5 скачавших)

    Онлайн видео Наследство волшебника Бахрама (1975) WEB



    Наследство волшебника Бахрама (1975) WEB-DLRip [H.264]
    Рейтинг →
     (голосов: 1, оценка 5/5, голосовать можно 1 раз )

    Другие торренты по теме:

  • Роковое наследство (2015) HDTV [1080i] (серии 1-2 из 2) скачать через торрент бесплатно
  • Перепутанные наследники / Наследство и последствия / Splitting Heirs (1993) HDTVRip [h264] [AVO] скачать через торрент бесплатно
  • Осторожно, мошенники! Битва за наследство (2015.05.12) SATRip скачать через торрент бесплатно
  • Криминальное наследство (2015) SATRip (серии 1-4 из 4) скачать через торрент бесплатно
  • Криминальное наследство (2015) SATRip [H.264] (серии 1-4 из 4) скачать через торрент бесплатно
  • Криминальное наследство (2015) HDTVRip [H.264] (серии 1-4 из 4) скачать через торрент бесплатно
  • Криминальное наследство (2015) HDTVRip [H.264 / 720p] (серии 1-4 из 4) скачать через торрент бесплатно
  • Криминальное наследство (2015) HDTV [H.264 / 1080i] (серии 1-4 из 4) скачать через торрент бесплатно


    • Комментарии (0):

      Информация

      Информация

        Посетители, находящиеся в группе Гости, не могут оставлять комментарии в данной новости.

        ↓ Меню




        ↓ Опрос

        Вы добавили сайт в закладки?
        Да
        Нет


        Популярное