.
Авторизация | Регистрация
bitok.xyz
» » Снежная Королева: Хранители Чудес (2019) WEB-DLRip [H.264 / 720p-LQ] (сезон 1, серия 1-4 из 26) [Обновляемая] торрент скачать бесплатно


    Снежная Королева: Хранители Чудес (2019) WEB-DLRip [H.264 / 720p-LQ] (сезон 1, серия 1-4 из 26) [Обновляемая] торрент скачать бесплатно

    Дата: 24-11-2019, 05:00 | .torrent скачали: 1

    Снежная Королева: Хранители Чудес (2019) WEB-DLRip [H.264 / 720p-LQ] (сезон 1, серия 1-4 из 26) [Обновляемая]Производство: Россия/Wizart animation
    Жанр: Детский, Компьютерная анимация
    Режиссер: Алексей Замыслов, Алексей Цицилин

    Актеры
    Татьяна Шитова, Прохор Чеховской, Татьяна Манетина, Инга Сметанина, Александр Лучинин
    Персонажи: Герда, Кай, Айси...

    Описание

    Поклонникам полнометражных мультфильмов про Снежную Королеву этот сериал точно понравится. У Герды и Кая теперь новый друг, малышка Айси. Она родом с Севера, из Королевства Вечного Мороза. Для нее в мире людей все в новинку — и не терпится все узнать и со всеми познакомиться. У нее есть и магическая сила, она умеет замораживать предметы или создавать новые из льда и снега. Она очень дорожит дружбой с Гердой и Каем. Ведь раньше, на Севере, у нее совсем не было друзей!
    В секретном штабе друзья преображаются в супергероев и отправляются туда, где требуется их помощь. Злодеи будут пытаться помешать Хранителям, но волшебные способности и смекалка помогают им справиться с любой задачей, а крепкая дружба делает их по-настоящему непобедимыми!
    Возраст: 0+ (для любой зрительской аудитории)
    Релиз от: Natasha77
    Продолжительность: ~00: 12: 00 серия
    Качество видео: WEB-DLRip
    Перевод: Не требуется (Русский)
    Субтитры: Отсутствуют
    Видео: AVC/H.264, 1280x720, ~2569 kbps
    Аудио: Русский: AAC, 2 ch, 192 kbps Код: выделить всеОбщее
    Уникальный идентификатор : 55837574877313031316467484000524733955 (0x2A01ECFDCF1B57A538058D7F73448E03)
    Полное имя : C:1_Первый день.mkv
    Формат : Matroska
    Версия формата : Version 4
    Размер файла : 240 Мбайт
    Продолжительность : 12 м. 5 с.
    Общий поток : 2774 Кбит/сек
    Дата кодирования : UTC 2019-11-23 15:40:12
    Программа кодирования : mkvmerge v40.0.0 (\'Old Town Road + Pony\') 32-bit
    Библиотека кодирования : libebml v1.3.9 + libmatroska v1.5.2
    Видео
    Идентификатор : 1
    Формат : AVC
    Формат/Информация : Advanced Video Codec
    Профиль формата :High@L3.1
    Настройки формата : CABAC/4 Ref Frames
    Параметр CABAC формата : Да
    Параметр RefFrames формата : 4 кадра
    Идентификатор кодека : V_MPEG4/ISO/AVC
    Продолжительность : 12 м. 5 с.
    Битрейт : 2569 Кбит/сек
    Ширина : 1280 пикселей
    Высота : 720 пикселей
    Соотношение сторон : 16:9
    Режим частоты кадров : Постоянный
    Частота кадров : 25, 000 кадров/сек
    Цветовое пространство : YUV
    Субдискретизация насыщенности : 4:2:0
    Битовая глубина : 8 бит
    Тип развёртки : Прогрессивная
    Бит/(Пиксели*Кадры) : 0.112
    Размер потока : 223 Мбайт (93%)
    Библиотека кодирования : x264 core 152 r2854 e9a5903
    Default : Да
    Forced : Нет
    Аудио
    Идентификатор : 2
    Формат : AAC LC
    Формат/Информация : Advanced Audio Codec Low Complexity
    Идентификатор кодека : A_AAC-2
    Продолжительность : 12 м. 5 с.
    Битрейт : 192 Кбит/сек
    Каналы : 2 канала
    ChannelLayout : L R
    Частота : 44, 1 КГц
    Частота кадров : 43, 066 кадра/сек (1024 SPF)
    Метод сжатия : С потерями
    Задержка видео : 6 мс.
    Размер потока : 16, 6 Мбайт (7%)
    Язык : Russian
    Default : Да
    Forced : Нет
    1 СЕЗОН
    01. Первый день
    02. Самое лучшее летние развлечение
    03. Дорога домой
    04. Месть Харальда

    Скриншоты для ознакомления


    23.11.2019. Добавлены 1-4 серии
    Снежная Королева: Хранители Чудес на NoNaMe Club

    Онлайн видео Снежная Королева: Хранители Чудес (2019) WEB-DLRip [H.264



    Снежная Королева: Хранители Чудес (2019) WEB-DLRip [H.264/720p-LQ] (сезон 1, серия 1-4 из 26) [Обновляемая]
    Рейтинг →
     (голосов: 1, оценка 4/5, голосовать можно 1 раз )

    Другие торренты по теме:

  • Снежная королева 2: Перезаморозка (2014) WEBRip скачать через торрент бесплатно
  • Снежная королева 2: Перезаморозка (2014) WEBRip [H.264 / 720p-LQ] скачать через торрент бесплатно
  • Снежная королева 2: Перезаморозка (2014) WEBRip [H.264] скачать через торрент бесплатно
  • Снежная королева 2: Перезаморозка (2014) WEB-DLRip
  • Снежная королева 2: Перезаморозка (2014) WEB-DL [720p]
  • Снежная королева 2: Перезаморозка (2014) WEB-DL [H.264 / 1080p-LQ]
  • Виктор Запаренко | Поиграем в сказку. Щелкунчик. Снежная королева. Книга-игра. 6-8 лет (2002) [PDF] скачать через торрент бесплатно
  • Снежная королева 2: Перезаморозка (2014) BDRip 3D [H.264 / 1080p] [Вертикальная анаморфная стереопара] [hand made 16:9]


    • Комментарии (0):

      Информация

      Информация

        Посетители, находящиеся в группе Гости, не могут оставлять комментарии в данной новости.

        ↓ Меню




        ↓ Опрос

        Вы добавили сайт в закладки?
        Да
        Нет


        Популярное