.
Авторизация | Регистрация
bitok.xyz
» » Петя и волк / Peter and the Wolf (1946) HDTV [H.264 / 1080p] (AVO) торрент скачать бесплатно


    Петя и волк / Peter and the Wolf (1946) HDTV [H.264 / 1080p] (AVO) торрент скачать бесплатно

    Дата: 24-11-2019, 05:00 | .torrent скачали: 0

    Петя и волк / Peter and the Wolf (1946) HDTV [H.264 / 1080p] (AVO)Производство: США/Walt Disney Productions
    Жанр: Мультфильм, Короткометражка, Фэнтези, Семейный, Рисованная анимация
    Режиссер: Клайд Джероними

    Описание

    Короткая музыкальная история из фильма Make Mine Music Walt Disney Studio, 1946 г.
    Петя и Волк — симфоническая сказка Сергея Прокофьева для детей, написанная в 1936 году.

    Рейтинг MPAA: этот продукт не был классифицирован
    Продолжительность: 00: 14: 35
    Качество видео: HDTV
    Перевод: Авторский одноголосый (Михалев)
    Субтитры: отсутствуют
    Видео: AVC/H.264, 1440x1080, ~12, 5 Mbps
    Аудио 1: AC3, 2 ch, 192 Kbps (английский)
    Аудио 2: AC3, 2 ch, 192 Kbps (русский)
    Общее
    Уникальный идентификатор : 311350568934306910612396933752889777102 (0xEA3BF03A68D5A8C9722C1219962B9BCE)
    Полное имя : E: VideoПетя и волк (Peter and the Wolf) 1946.mkv
    Формат : Matroska
    Версия формата : Version 4/Version 2
    Размер файла : 1, 32 Гбайт
    Продолжительность : 14 м. 35 с.
    Общий поток : 12, 9 Мбит/сек
    Название фильма : Петя и волк/Peter and the Wolf
    Дата выпуска : 1946
    Дата кодирования : UTC 2019-11-23 05: 34: 57
    Программа кодирования : mkvmerge v34.0.0 (\'Sight and Seen\') 64-bit
    Библиотека кодирования : libebml v1.3.7 + libmatroska v1.5.0
    Обложка : Yes
    Attachments : cover.jpg
    Released by : Buba5473 for NNM-Club
    Видео
    Идентификатор : 1
    Формат : AVC
    Формат/Информация : Advanced Video Codec
    Профиль формата : High@L4.1
    Параметр CABAC формата : Да
    Параметр ReFrames формата : 5 кадров
    Идентификатор кодека : V_MPEG4/ISO/AVC
    Продолжительность : 14 м. 35 с.
    Битрейт : 12, 5 Мбит/сек
    Ширина : 1440 пикселей
    Высота : 1080 пикселей
    Соотношение сторон : 4: 3
    Режим частоты кадров : Постоянный
    Частота кадров : 23, 976 (24000/1001) кадра/сек
    Цветовое пространство : YUV
    Субдискретизация насыщенности : 4: 2: 0
    Битовая глубина : 8 бит
    Тип развёртки : Прогрессивная
    Бит/(Пиксели*Кадры) : 0.336
    Размер потока : 1, 28 Гбайт (97%)
    Заголовок : Peter.and.the.Wolf.1946.1080p.HDTV.DD2.0.x264
    Библиотека кодирования : x264 core 157 r2932 303c484
    Настройки программы : cabac=1/ref=5/deblock=1: -3: 3/analyse=0x3: 0x133/me=umh/subme=11/psy=1/psy_rd=0.80: 0.00/mixed_ref=1/me_range=24/chroma_me=1/trellis=2/8x8dct=1/cqm=0/deadzone=21, 11/fast_pskip=1/chroma_qp_offset=-2/threads=6/lookahead_threads=1/sliced_threads=0/nr=0/decimate=1/interlaced=0/bluray_compat=0/constrained_intra=0/bframes=10/b_pyramid=2/b_adapt=2/b_bias=0/direct=3/weightb=1/open_gop=0/weightp=2/keyint=250/keyint_min=23/scenecut=40/intra_refresh=0/rc=crf/mbtree=0/crf=16.0/qcomp=0.70/qpmin=0/qpmax=69/qpstep=4/ip_ratio=1.40/pb_ratio=1.30/aq=1: 1.00
    Язык : English
    Default : Да
    Forced : Нет
    Аудио #1
    Идентификатор : 2
    Формат : AC-3
    Формат/Информация : Audio Coding 3
    Параметр Endianness формата : Big
    Идентификатор кодека : A_AC3
    Продолжительность : 14 м. 34 с.
    Вид битрейта : Постоянный
    Битрейт : 192 Кбит/сек
    Каналы : 2 канала
    Расположение каналов : Front: L R
    Частота : 48, 0 КГц
    Частота кадров : 31, 250 кадров/сек (1536 SPF)
    Битовая глубина : 16 бит
    Метод сжатия : С потерями
    Задержка видео : 28 мс.
    Размер потока : 20, 0 Мбайт (1%)
    Язык : English
    Service kind : Complete Main
    Default : Нет
    Forced : Нет
    Аудио #2
    Идентификатор : 3
    Формат : AC-3
    Формат/Информация : Audio Coding 3
    Параметр Endianness формата : Big
    Идентификатор кодека : A_AC3
    Продолжительность : 14 м. 35 с.
    Вид битрейта : Постоянный
    Битрейт : 192 Кбит/сек
    Каналы : 2 канала
    Расположение каналов : Front: L R
    Частота : 48, 0 КГц
    Частота кадров : 31, 250 кадров/сек (1536 SPF)
    Битовая глубина : 16 бит
    Метод сжатия : С потерями
    Задержка видео : 17 мс.
    Размер потока : 20, 0 Мбайт (1%)
    Заголовок : Перевод: Авторский (одноголосый закадровый) (Михалев)
    Язык : Russian
    Service kind : Complete Main
    Default : Да
    Forced : Нет
    XMP
    Xmp.video.FileName : E: VideoПетя и волк (Peter and the Wolf) 1946.mkv
    Xmp.video.FileSize : 1349.12
    Xmp.video.MimeType : video/matroska
    Xmp.video.EBMLVersion : 1
    Xmp.video.EBMLReadVersion : 1
    Xmp.video.DocType : matroska
    Xmp.video.DocTypeVersion : 4
    Xmp.video.DocTypeReadVersion : 2
    Xmp.video.TimecodeScale : 0.001
    Xmp.video.MuxingApp : libebml v1.3.7 + libmatroska v1.5.0
    Xmp.video.WritingApp : mkvmerge v34.0.0 (\'Sight and Seen\') 64-bit
    Xmp.video.Duration : 875377
    Xmp.video.DateUTC : 596180097
    Xmp.video.Title : Петя Рё РІРѕРРє/Peter and the Wolf
    Xmp.video.TotalStream : 73
    Xmp.video.TrackLacing : No
    Xmp.video.Codec : V_MPEG4/ISO/AVC
    Xmp.video.FrameRate : 23.976
    Xmp.video.TrackName : Перевод: Авторский (РѕРґРЅРѕРіРѕРосый закадровый) (РњРёС…Р°Рев)
    Xmp.video.Width : 1440
    Xmp.video.Height : 1080
    Xmp.audio.DefaultOn : No
    Xmp.audio.Compressor : A_AC3
    Xmp.audio.DefaultDuration : 32000
    Xmp.audio.SampleRate : 48000
    Xmp.audio.ChannelType : Stereo
    Xmp.audio.TrackLang : rus
    Xmp.video.AttachFileName : cover.jpg
    Xmp.video.AttachFileMIME : image/jpeg
    Xmp.video.AttachFileUID : -7204411192070550075
    Xmp.video.AttachFileDesc : Cover
    Xmp.video.AspectRatio : 4: 3

    Скриншоты для ознакомления



    Все одноименные релизы в Клубе
    Время раздачи: с 11: 00 до 21: 00 по Новосибирску (UTC +7) (до появления первых 3-5 скачавших)

    Онлайн видео Петя и волк



    Петя и волк/Peter and the Wolf (1946) HDTV [H.264/1080p] (AVO)
    Рейтинг →
     (голосов: 1, оценка 4/5, голосовать можно 1 раз )

    Другие торренты по теме:

  • Петя по дороге в Царствие Небесное (2009) WEB-DLRip [H.264 / 720p-LQ]
  • Петя по дороге в Царствие Небесное (2009) WEB-DLRip


    • Комментарии (0):

      Информация

      Информация

        Посетители, находящиеся в группе Гости, не могут оставлять комментарии в данной новости.

        ↓ Меню




        ↓ Опрос

        Вы добавили сайт в закладки?
        Да
        Нет


        Популярное