.
Авторизация | Регистрация
bitok.xyz
» » Yuru Yuri Ten | Лилии на ветру OVA 2 [2019, OVA, 1 эп.] BDRip 1080p raw торрент скачать бесплатно


    Yuru Yuri Ten | Лилии на ветру OVA 2 [2019, OVA, 1 эп.] BDRip 1080p raw торрент скачать бесплатно

    Дата: 24-11-2019, 05:00 | .torrent скачали: 0

    Yuru Yuri Ten | Лилии на ветру OVA 2 [2019, OVA, 1 эп.] BDRip 1080p rawЖанр: комедия, повседневность
    Тип: OVA
    Продолжительность: 1 эп. по 35 мин.
    Количество серий: 1 из 1
    Выпуск: 18.09.2019
    Производство: студияLay-duce
    Автор оригинала: Намори
    Режиссер: Ямагиси Дайго
    Ссылки: World-Art, ANN, AniDB, MyAnimeList

    Описание

    OVA-эпизод, посвящённый 10-летию манги Лилии на ветру.
    Качество видео: BDRip
    Видео: AVC (High@L4), 1920x1080 (16: 9), ~23.976 fps, ~5155 kbps
    Аудио: FLAC, 2 ch, 48 kHz, 24 bit, ~1434 kbps |Звук: Японский
    Язык озвучки: Японский
    Субтитры: Русские
    Перевод: Переводилдо Мелин

    Скриншоты для ознакомления




    General
    Unique ID : 262288329202050406472980010174359248698 (0xC552E50CDA0E3B525FDE534023139F3A)
    Complete name : Yuru Yuri Ten (BDRip 1920x1080 x264 FLAC)ReinForce Yuru Yuri Ten (BDRip 1920x1080 x264 FLAC).mkv
    Format : Matroska
    Format version : Version 4
    File size : 1.46 GiB
    Duration : 31 min 40 s
    Overall bit rate mode : Variable
    Overall bit rate : 6 591 kb/s
    Encoded date : UTC 2019-10-19 19: 41: 33
    Writing application : mkvmerge v37.0.0 (\'Leave It\') 64-bit
    Writing library : libebml v1.3.9 + libmatroska v1.5.2
    Video
    ID : 1
    Format : AVC
    Format/Info : Advanced Video Codec
    Format profile : High@L4
    Format settings : CABAC/4 Ref Frames
    Format settings, CABAC : Yes
    Format settings, Reference : 4 frames
    Codec ID : V_MPEG4/ISO/AVC
    Duration : 31 min 40 s
    Bit rate : 5 155 kb/s
    Width : 1 920 pixels
    Height : 1 080 pixels
    Display aspect ratio : 16: 9
    Frame rate mode : Constant
    Frame rate : 23.976 (24000/1001) FPS
    Color space : YUV
    Chroma subsampling : 4: 2: 0
    Bit depth : 8 bits
    Scan type : Progressive
    Bits/(Pixel*Frame) : 0.104
    Stream size : 1.14 GiB (78%)
    Writing library : x264 core 157
    Encoding settings : opencl=1/cabac=1/ref=4/deblock=1: -2: -2/analyse=0x3: 0x113/me=umh/subme=9/psy=1/psy_rd=0.70: 0.00/mixed_ref=0/me_range=32/chroma_me=1/trellis=2/8x8dct=1/cqm=0/deadzone=21, 11/fast_pskip=1/chroma_qp_offset=-2/threads=8/lookahead_threads=1/sliced_threads=0/nr=0/decimate=1/interlaced=0/bluray_compat=0/constrained_intra=0/bframes=9/b_pyramid=2/b_adapt=2/b_bias=0/direct=3/weightb=1/open_gop=0/weightp=2/keyint=250/keyint_min=23/scenecut=40/intra_refresh=0/rc_lookahead=40/rc=crf/mbtree=1/crf=16.0/qcomp=0.70/qpmin=10/qpmax=20/qpstep=4/ip_ratio=1.40/aq=1: 1.00
    Default : Yes
    Forced : No
    Audio
    ID : 2
    Format : FLAC
    Format/Info : Free Lossless Audio Codec
    Codec ID : A_FLAC
    Duration : 31 min 40 s
    Bit rate mode : Variable
    Bit rate : 1 434 kb/s
    Channel(s) : 2 channels
    Channel layout : L R
    Sampling rate : 48.0 kHz
    Frame rate : 10.417 FPS (4608 SPF)
    Bit depth : 24 bits
    Compression mode : Lossless
    Stream size : 325 MiB (22%)
    Writing library : Lavf58.20.100
    Language : Japanese
    Default : Yes
    Forced : No


    Онлайн видео Yuru Yuri Ten



    Yuru Yuri Ten | Лилии на ветру OVA 2 [2019, OVA, 1 эп.] BDRip 1080p raw
    Рейтинг →
     (голосов: 1, оценка 4/5, голосовать можно 1 раз )

    Другие торренты по теме:

  • Yuru Yuri Nachuyachumi!+ / Yuru Yuri Nachuyachumi! Plus / Лилии на ветру: Летние каникулы!+ [2010, TV Special, 2 эп.] BDRip 1080p 10 bit Raw
  • Yuru Yuri Nachuyachumi! / Лилии на ветру: Летние каникулы [2014, OVA, 1] BDrip 1080p Hi10p raw скачать через торрент бесплатно
  • Yuru Yuri San Hai! / Свободу лесбиянкам! Три подружки! [2015, TV, 1 из 12 эп] HDTVRip 1080p raw скачать через торрент бесплатно
  • Yuru Yuri San Hai! / Свободу лесбиянкам! Три подружки! [2015, TV, 12 эп] BDrip 1080p raw
  • Yuru Yuri / Свободу лесбиянкам! [2011, 12 эпизодов] HDTV 720p raw


    • Комментарии (0):

      Информация

      Информация

        Посетители, находящиеся в группе Гости, не могут оставлять комментарии в данной новости.

        ↓ Меню




        ↓ Опрос

        Вы добавили сайт в закладки?
        Да
        Нет


        Популярное

        Футурама / Futurama (1999-2013) DVDRip (7 Сезонов, 140 серии) скачать через торрент бесплатно

        (скачиваний: 70)
        Малышарики (2015-2019) WEB-DL [H.264 / 1080p-LQ] (серии 1-154 из 208) [Обновляемая]

        (скачиваний: 57)
        Жила-была царевна (2015-2019) WEB-DLRip [H.264 / 720p-LQ] (сезон 1, серии 1-18 из 26) [Обновляемая]

        (скачиваний: 34)
        Металионы / Metalions (2018-2019) WEB-DLRip [H.264 / 720p-LQ] (сезон 1, серии 1-52 из 52) [Обновляемая]

        (скачиваний: 32)
        В гостях у сказки (сборник 56 фильмов) (1939-2009) DVDRip

        (скачиваний: 26)
        Три кота (2018) WEB-DLRip [H.264 / 720p-LQ] (сезон 3, серии 105-106 из 156)

        (скачиваний: 25)
        Спокойной ночи, малыши! (2009, 2015) SATRip, TVRip (83 выпусков)

        (скачиваний: 19)
        Рик и Морти / Rick and Morty (2013) BDRip [H.264 / 1080p] (Сезон 1, серии 1-11 из 11) Сыендук [EN Sub] скачать через торрент бесплатно

        (скачиваний: 18)
        Роботы-поезда / Robot Trains (2017) WEB-DL [H.264 / 720p-LQ] (1 сезон, 32 серий из 32)

        (скачиваний: 13)
        Fate / stay night Movie: Heavens Feel - II. Lost Butterfly / Судьба: Ночь схватки. Прикосновение Небес - II. Потерявшаяся бабочка [2019, MV] BDRip 1080p Rus

        (скачиваний: 12)