.
Авторизация | Регистрация
bitok.xyz
» » Лешики. Таинственные похитители (2008) DVDRip торрент скачать бесплатно


    Лешики. Таинственные похитители (2008) DVDRip торрент скачать бесплатно

    Дата: 25-11-2019, 05:00 | .torrent скачали: 1

    Лешики. Таинственные похитители (2008) DVDRipПроизводство: Россия, Директ-Медиа, Издательство Нитусов
    Жанр: Детский, Приключения, Мультфильм, Рисованная анимация
    Режиссер: Курченко Сергей, Курченко Ольга

    Описание

    Лешики – таинственные лесные жители, не заметные взгляду простого человека, их видят лишь те, кто верит в волшебство и не утратил детскую бескорыстную любовь к сказкам. Увидев в сухой веточке или причудливо изогнутом корне старого пня загадочную фигурку, мы, порой, восхищаемся творением природы, даже не подозревая, что есть в лесу волшебные места, где обитает целый народец таких оживших фигурок. Все они чем-то похожи и все же — настолько разные, что не перестаешь удивляться многообразию их характеров и образов. При всей необычности внешнего облика, они очень напоминают людей, скорее даже детей, немного неуклюжих, веселых и озорных.
    Продолжительность: 00: 55: 10
    Качество видео: DVDRip
    Субтитры: отсутствуют
    Видео: XviD, 720x540, 726 Kbps
    Аудио: MP3, 2 ch, 128 Kbps
    Общее
    Полное имя : G: Leshiki.avi
    Формат : AVI
    Формат/Информация : Audio Video Interleave
    Размер файла : 342 Мбайт
    Продолжительность : 55 м. 10 с.
    Общий поток : 866 Кбит/сек
    Видео
    Идентификатор : 1
    Формат : MPEG-4 Visual
    Профиль формата : Advanced Simple@L5
    Параметр BVOP формата : 2
    Параметр QPel формата : Нет
    Параметр GMC формата : Без точки перехода
    Параметр матрицы формата : Default (H.263)
    Режим смешивания : Сжатый битовый поток
    Идентификатор кодека : XVID
    Идентификатор кодека/Подсказка : XviD
    Продолжительность : 55 м. 10 с.
    Битрейт : 726 Кбит/сек
    Ширина : 720 пикселей
    Высота : 540 пикселей
    Соотношение сторон : 4: 3
    Частота кадров : 25, 000 кадров/сек
    Цветовое пространство : YUV
    Субдискретизация насыщенности : 4: 2: 0
    Битовая глубина : 8 бит
    Тип развёртки : Прогрессивная
    Метод сжатия : С потерями
    Бит/(Пиксели*Кадры) : 0.075
    Размер потока : 286 Мбайт (84%)
    Библиотека кодирования : XviD 1.2.0SMP (UTC 2006-01-08)
    Аудио
    Идентификатор : 0
    Формат : MPEG Audio
    Версия формата : Version 1
    Профиль формата : Layer 3
    Режим : Dual mono
    Идентификатор кодека : 55
    Идентификатор кодека/Подсказка : MP3
    Продолжительность : 55 м. 10 с.
    Вид битрейта : Постоянный
    Битрейт : 128 Кбит/сек
    Каналы : 2 канала
    Частота : 44, 1 КГц
    Метод сжатия : С потерями
    Задержка видео : 26 мс.
    Размер потока : 50, 5 Мбайт (15%)
    Выравнивание : Разделение по промежуткам
    Продолжительность промежутка : 40 мс. (1, 00 видеокадр)
    Библиотека кодирования : LAME3.93

    Скриншоты для ознакомления



    Все одноименные релизы в Клубе
    Время раздачи: с 11: 00 до 01: 00 (до появления первых 3-5 скачавших)

    Лешики. Таинственные похитители (2008) DVDRip
    Рейтинг →
     (голосов: 1, оценка 3/5, голосовать можно 1 раз )

    Другие торренты по теме:



      Комментарии (0):

      Информация

      Информация

        Посетители, находящиеся в группе Гости, не могут оставлять комментарии в данной новости.

        ↓ Меню




        ↓ Опрос

        Вы добавили сайт в закладки?
        Да
        Нет


        Популярное