.
Авторизация | Регистрация
bitok.xyz
» » Затерянное львиное королевство / The Lost Lion Kingdom (2019) WEB-DLRip [H.264 / 720p-LQ] [MVO] торрент скачать бесплатно


    Затерянное львиное королевство / The Lost Lion Kingdom (2019) WEB-DLRip [H.264 / 720p-LQ] [MVO] торрент скачать бесплатно

    Дата: 26-11-2019, 05:00 | .torrent скачали: 0

    Затерянное львиное королевство / The Lost Lion Kingdom (2019) WEB-DLRip [H.264 / 720p-LQ] [MVO]Производство: США/Dream Machine Animation
    Жанр: Мультфильм, фантастика, приключения, детский, полнометражный
    Режиссер: Джейсон Райт

    Актеры
    Кдж Шрок, Сара Тейлор

    Описание

    Мультфильм о борьбе добра со злом на просторах космоса. Героями здесь становятся звери, которые летают на футуристических звездолетах. По сюжету много лет назад животные покинули родную планету и нашли себе новый дом. И вот теперь затерянное царство львов на планете Малтурния в опасности! Афас, король львов, отправляет в космос своего первенца Самара и его верного друга, слона Тушу, чтобы спасти королевство. Там им противостоит злая тигрица Инала и ее верный какаду Бинди. Злодеи обладают древней силой, способной уничтожить все королевство львов, и только Самар и Туша могут остановить Иналу и спасти свой дом.

    Продолжительность: 01: 13: 38
    Качество видео: WEB-DLRip
    Перевод: Многоголосый закадровый, профессиональный
    Субтитры: Отсутствуют
    Видео: AVC/H.264, 1280x720, ~2569 Kbps
    Аудио: AAC LC, 2 ch, 256 Kbps
    Общее
    Уникальный идентификатор : 66877408543996089904539593120359784363 (0x32501ED0AF85C5B6DA33F7B5810A1FAB)
    Полное имя : D: NNMЗатерянное львиное королевствоThe.Lost.Lion.Kingdom.2019.WEB-DLRip.720p-LQ.mkv
    Формат : Matroska
    Версия формата : Version 4
    Размер файла : 1, 45 Гбайт
    Продолжительность : 1 ч. 13 м.
    Общий поток : 2814 Кбит/сек
    Дата кодирования : UTC 2019-11-03 09: 37: 32
    Программа кодирования : mkvmerge v32.0.0 (\'Astral Progressions\') 64-bit
    Библиотека кодирования : libebml v1.3.7 + libmatroska v1.5.0
    Видео
    Идентификатор : 1
    Формат : AVC
    Формат/Информация : Advanced Video Codec
    Профиль формата : High@L4
    Настройки формата : CABAC/4 Ref Frames
    Параметр CABAC формата : Да
    Параметр RefFrames формата : 4 кадра
    Идентификатор кодека : V_MPEG4/ISO/AVC
    Продолжительность : 1 ч. 13 м.
    Битрейт : 2569 Кбит/сек
    Ширина : 1280 пикселей
    Высота : 720 пикселей
    Соотношение сторон : 16: 9
    Режим частоты кадров : Постоянный
    Частота кадров : 24, 000 кадра/сек
    Цветовое пространство : YUV
    Субдискретизация насыщенности : 4: 2: 0
    Битовая глубина : 8 бит
    Тип развёртки : Прогрессивная
    Бит/(Пиксели*Кадры) : 0.116
    Размер потока : 1, 31 Гбайт (91%)
    Default : Нет
    Forced : Нет
    Цветовой диапазон : Limited
    Основные цвета : BT.709
    Характеристики трансфера : BT.709
    Коэффициенты матрицы : BT.709
    Аудио
    Идентификатор : 2
    Формат : AAC LC
    Формат/Информация : Advanced Audio Codec Low Complexity
    Идентификатор кодека : A_AAC-2
    Продолжительность : 1 ч. 13 м.
    Битрейт : 256 Кбит/сек
    Каналы : 2 канала
    ChannelLayout : L R
    Частота : 48, 0 КГц
    Частота кадров : 46, 875 кадров/сек (1024 SPF)
    Метод сжатия : С потерями
    Задержка видео : -43 мс.
    Размер потока : 135 Мбайт (9%)
    Язык : Russian
    Default : Да
    Forced : Нет

    Скриншоты для ознакомления



    Все одноименные релизы в Клубе Время раздачи: 24/7 (до появления первых 3-5 скачавших)

    Онлайн видео Затерянное львиное королевство



    Затерянное львиное королевство/The Lost Lion Kingdom (2019) WEB-DLRip [H.264/720p-LQ] [MVO]
    Рейтинг →
     (голосов: 1, оценка 3/5, голосовать можно 1 раз )

    Другие торренты по теме:

  • The Secret Order 5: The Buried Kingdom / Тайный орден 5: Затерянное королевство (2017) [Ru] (1.0) Unofficial [Collectors Edition / Коллекционное издание]
  • Animal Planet: Земля снежного человека. Затерянное королевство йети / The Lost Kingdom of the Yeti (2018) HDTVRip [H.264 / 1080i-LQ]
  • Джон Джексон Миллер | Затерянное племя ситхов [Сборник] (2016) [FB2]


    • Комментарии (0):

      Информация

      Информация

        Посетители, находящиеся в группе Гости, не могут оставлять комментарии в данной новости.

        ↓ Меню




        ↓ Опрос

        Вы добавили сайт в закладки?
        Да
        Нет


        Популярное