.
Авторизация | Регистрация
bitok.xyz
» » Звёздные войны: Сопротивление / Star Wars: Resistance (2019) WEB-DLRip [H.264 / 1080p-LQ] (сезон 2, серии 1-7 из 13) Lostfilm (обновляемая) торрент скачать бесплатно


    Звёздные войны: Сопротивление / Star Wars: Resistance (2019) WEB-DLRip [H.264 / 1080p-LQ] (сезон 2, серии 1-7 из 13) Lostfilm (обновляемая) торрент скачать бесплатно

    Дата: 27-11-2019, 05:00 | .torrent скачали: 0

    Звёздные войны: Сопротивление / Star Wars: Resistance (2019) WEB-DLRip [H.264 / 1080p-LQ] (сезон 2, серии 1-7 из 13) Lostfilm (обновляемая)Производство: США, Lucasfilm Ltd, DisneyXD
    Жанр: Фантастика, Анимация, Приключения
    Режиссер: Стюарт Ли, Боско ЭнДжи, Сол Руис

    Описание

    Кадзуда Сионо — молодой пилот, недавно вступивший в ряды Сопротивления под командованием генерала Леи. Несмотря на юный возраст, Кадзуде поручают важное задание — разведать, чем занимается Первый орден.

    Возраст: 6+ (зрителям, достигшим 6 лет)
    Дата мировой премьеры: 06.10.2019
    Релиз от: LostFilm
    Продолжительность: ~00: 30: 00 серия
    Качество видео: WEBRip
    Перевод: Многоголосый профессиональный (LostFilm)
    Субтитры: нет
    Реклама: присутствуют заставка и логотип LostFilm
    Видео: AVC/H.264, 1920x1080, ~6800 kbps
    Аудио 1: AC3, 2 ch, 384 kbps, русский
    Аудио 2: AC3, 2 ch, 384 kbps, английский
    General
    Unique ID : 173030484598757423890455826441138979697 (0x822C758B61EB630CB7313B128059C371)
    Complete name : \FREEWIND_NASvideoTVStarWarsStar.Wars.Resistance.S02E01.1080p.rus.LostFilm.TV.mkv
    Format : Matroska
    Format version : Version 4
    File size : 1.18 GiB
    Duration : 22 min 16 s
    Overall bit rate : 7 566 kb/s
    Encoded date : UTC 2019-10-11 15: 54: 03
    Writing application : mkvmerge v7.7.0 (\'Six Voices\') 64bit built on Feb 28 2015 23: 39: 33
    Writing library : libebml v1.3.1 + libmatroska v1.4.2
    Video
    ID : 1
    Format : AVC
    Format/Info : Advanced Video Codec
    Format profile : High@L4.1
    Format settings : CABAC/4 Ref Frames
    Format settings, CABAC : Yes
    Format settings, Reference : 4 frames
    Codec ID : V_MPEG4/ISO/AVC
    Duration : 22 min 16 s
    Bit rate : 6 800 kb/s
    Width : 1 920 pixels
    Height : 1 080 pixels
    Display aspect ratio : 16: 9
    Frame rate mode : Constant
    Frame rate : 23.976 (24000/1001) FPS
    Original frame rate : 23.976 (23976/1000) FPS
    Color space : YUV
    Chroma subsampling : 4: 2: 0
    Bit depth : 8 bits
    Scan type : Progressive
    Bits/(Pixel*Frame) : 0.137
    Stream size : 1.06 GiB (90%)
    Writing library : x264 core 112 r1834 a51816a
    Encoding settings : cabac=1/ref=4/deblock=1: -3: -2/analyse=0x3: 0x113/me=hex/subme=7/psy=1/psy_rd=1.00: 0.00/mixed_ref=1/me_range=16/chroma_me=1/trellis=1/8x8dct=1/cqm=0/deadzone=21, 11/fast_pskip=1/chroma_qp_offset=-2/threads=12/sliced_threads=0/nr=0/decimate=1/interlaced=0/constrained_intra=0/bframes=5/b_pyramid=2/b_adapt=1/b_bias=0/direct=1/weightb=1/open_gop=0/weightp=2/keyint=250/keyint_min=25/scenecut=40/intra_refresh=0/rc_lookahead=40/rc=2pass/mbtree=1/bitrate=6800/ratetol=1.0/qcomp=0.60/qpmin=0/qpmax=51/qpstep=4/cplxblur=20.0/qblur=0.5/vbv_maxrate=10000/vbv_bufsize=256000/ip_ratio=1.40/aq=1: 1.00/nal_hrd=none
    Default : Yes
    Forced : No
    Audio #1
    ID : 2
    Format : AC-3
    Format/Info : Audio Coding 3
    Commercial name : Dolby Digital
    Codec ID : A_AC3
    Duration : 22 min 16 s
    Bit rate mode : Constant
    Bit rate : 384 kb/s
    Channel(s) : 2 channels
    Channel layout : L R
    Sampling rate : 48.0 kHz
    Frame rate : 31.250 FPS (1536 SPF)
    Bit depth : 16 bits
    Compression mode : Lossy
    Stream size : 61.2 MiB (5%)
    Service kind : Complete Main
    Default : Yes
    Forced : No
    Audio #2
    ID : 3
    Format : AC-3
    Format/Info : Audio Coding 3
    Commercial name : Dolby Digital
    Codec ID : A_AC3
    Duration : 22 min 16 s
    Bit rate mode : Constant
    Bit rate : 384 kb/s
    Channel(s) : 2 channels
    Channel layout : L R
    Sampling rate : 48.0 kHz
    Frame rate : 31.250 FPS (1536 SPF)
    Bit depth : 16 bits
    Compression mode : Lossy
    Stream size : 61.2 MiB (5%)
    Service kind : Complete Main
    Default : No
    Forced : No
    2 сезон любимого сериала 1 серия/В неизвестность/Into the Unknown
    2 сезон любимого сериала 2 серия/Небольшая вылазка за трофеями/A Quick Salvage Run
    2 сезон любимого сериала 3 серия/Боевые учения/Live Fire
    2 сезон любимого сериала 4 серия/Охота на Цельсоре/3 Hunt on Celsor 3
    2 сезон любимого сериала 5 серия/Инженер/The Engineer
    2 сезон любимого сериала 6 серия/Из недр/From Beneath
    2 сезон любимого сериала 7 серия/Искатели реликвий/The Relic Raiders
    Скриншоты для ознакомления



    Все одноименные релизы в Клубе
    Время раздачи: 24/7 (круглосуточно)

    Онлайн видео Звёздные войны: Сопротивление



    Звёздные войны: Сопротивление/Star Wars: Resistance (2019) WEB-DLRip [H.264/1080p-LQ] (сезон 2, серии 1-7 из 13) Lostfilm (обновляемая)
    Рейтинг →
     (голосов: 1, оценка 5/5, голосовать можно 1 раз )

    Другие торренты по теме:

  • Lucasfilm | Артбук по мультфильму Звёздные войны: Войны клонов / The Art of Star Wars: The Clone Wars (2009) [CBR] [EN]
  • Звёздные войны. Эпизод 5: Империя наносит ответный удар / Star Wars: Episode V - The Empire Strikes Back / Despecialized Edition Theatrical reconstruction HD (1980) BDRip скачать через торрент бесплатно
  • Звёздные войны: Повстанцы / Star Wars: Rebels (2014) WEB-DLRip (Сезон 1, Серий 3 из 16) (LostFilm)
  • Финес и Ферб. Звёздные войны / Phineas and Ferb: Star Wars (2014) WEB-DLRip (ЛанселаП) скачать через торрент бесплатно
  • Звёздные войны: Повстанцы / Star Wars: Rebels (2014) WEB-DLRip [1080p] (Сезон 1, серий 8 из 16) (LostFilm) скачать через торрент бесплатно
  • Звёздные войны: Повстанцы / Star Wars: Rebels (2014) WEB-DLRip (Сезон 1, серий 7 из 16) (Невафильм) (обновляемая)
  • Звёздные войны: Повстанцы 1.0.0 - Официальная игра по мотивам популярного серила [Ru] скачать через торрент бесплатно
  • Звёздные войны: Повстанцы 1.0.2 [Ru / En] скачать через торрент бесплатно


    • Комментарии (0):

      Информация

      Информация

        Посетители, находящиеся в группе Гости, не могут оставлять комментарии в данной новости.

        ↓ Меню




        ↓ Опрос

        Вы добавили сайт в закладки?
        Да
        Нет


        Популярное