.
Авторизация | Регистрация
bitok.xyz
» » Соколик / Vanadzins (1978) DVDRip [VO] торрент скачать бесплатно


    Соколик / Vanadzins (1978) DVDRip [VO] торрент скачать бесплатно

    Дата: 27-11-2019, 05:00 | .torrent скачали: 0

    Соколик / Vanadzins (1978) DVDRip [VO]Производство: СССР, Латвийская республика
    Жанр: Кукольный, Короткометражный
    Режиссер: Арнольд Буровс

    Описание

    По рассказу Вилиса Лациса.
    О мальчике по прозвищу Соколик, который живёт с отцом-рыбаком в деревушке на берегу моря. Отец ежедневно отправляется ловить рыбу, а Соколик на весь день остаётся дома вдвоём с котом. Мальчик мечтает когда-нибудь стать капитаном корабля, а пока лишь ждёт возвращения отца с моря. Но однажды его отец не возвращается...

    Возраст: этот продукт не был классифицирован
    Продолжительность: 00: 15: 03
    Качество видео: DVDRip
    Перевод: любительский одноголосый (progulkin )
    Субтитры: отсутствуют
    Видео: XviD, 704x304, 2 315 Kbps
    Аудио #1: MP3, 2 ch, 192 Kbps - русский (VO, progulkin)
    Аудио #2: AC-3, 2 ch, 224 Kbps - латышский
    Общее
    Полное имя : G: Vanadzins (1978).avi
    Формат : AVI
    Формат/Информация : Audio Video Interleave
    Размер файла : 296 Мбайт
    Продолжительность : 15 м. 3 с.
    Общий поток : 2746 Кбит/сек
    Программа кодирования : VirtualDubMod 1.5.10.2 (build 2540/release)
    Библиотека кодирования : VirtualDubMod build 2540/release
    Видео
    Идентификатор : 0
    Формат : MPEG-4 Visual
    Профиль формата : Advanced Simple@L5
    Параметр BVOP формата : 2
    Параметр QPel формата : Нет
    Параметр GMC формата : Без точки перехода
    Параметр матрицы формата : Default (MPEG)
    Идентификатор кодека : XVID
    Идентификатор кодека/Подсказка : XviD
    Продолжительность : 15 м. 3 с.
    Битрейт : 2315 Кбит/сек
    Ширина : 704 пикселя
    Высота : 304 пикселя
    Соотношение сторон : 2, 35: 1
    Частота кадров : 25, 000 кадров/сек
    Цветовое пространство : YUV
    Субдискретизация насыщенности : 4: 2: 0
    Битовая глубина : 8 бит
    Тип развёртки : Прогрессивная
    Метод сжатия : С потерями
    Бит/(Пиксели*Кадры) : 0.433
    Размер потока : 249 Мбайт (84%)
    Библиотека кодирования : XviD 64
    Аудио #1
    Идентификатор : 1
    Формат : MPEG Audio
    Версия формата : Version 1
    Профиль формата : Layer 3
    Идентификатор кодека : 55
    Идентификатор кодека/Подсказка : MP3
    Продолжительность : 15 м. 3 с.
    Вид битрейта : Постоянный
    Битрейт : 192 Кбит/сек
    Каналы : 2 канала
    Частота : 44, 1 КГц
    Метод сжатия : С потерями
    Размер потока : 20, 7 Мбайт (7%)
    Выравнивание : Разделение по промежуткам
    Продолжительность промежутка : 40 мс. (1, 00 видеокадр)
    Время предзагрузки промежутка : 500 мс.
    Аудио #2
    Идентификатор : 2
    Формат : AC-3
    Формат/Информация : Audio Coding 3
    Расширение режима : CM (complete main)
    Параметр Endianness формата : Big
    Идентификатор кодека : 2000
    Продолжительность : 15 м. 3 с.
    Вид битрейта : Постоянный
    Битрейт : 224 Кбит/сек
    Каналы : 2 канала
    Расположение каналов : Front: L R
    Частота : 48, 0 КГц
    Частота кадров : 31, 250 кадров/сек (1536 spf)
    Битовая глубина : 16 бит
    Метод сжатия : С потерями
    Размер потока : 24, 1 Мбайт (8%)
    Выравнивание : Соединение по промежуткам
    Продолжительность промежутка : 40 мс. (1, 00 видеокадр)
    Время предзагрузки промежутка : 512 мс.

    Скриншоты для ознакомления



    Все одноименные релизы в Клубе
    Время раздачи: с 11: 00 до 01: 00 (до появления первых 3-5 скачавших)

    Онлайн видео Соколик



    Соколик/Vanadzins (1978) DVDRip [VO]
    Рейтинг →
     (голосов: 1, оценка 5/5, голосовать можно 1 раз )

    Другие торренты по теме:



      Комментарии (0):

      Информация

      Информация

        Посетители, находящиеся в группе Гости, не могут оставлять комментарии в данной новости.

        ↓ Меню




        ↓ Опрос

        Вы добавили сайт в закладки?
        Да
        Нет


        Популярное