.
Авторизация | Регистрация
bitok.xyz
» » Головоломка / Inside Out (2015) BDRip [H.265 / 1080p-LQ] [10-bit] [Локализованная версия] торрент скачать бесплатно


    Головоломка / Inside Out (2015) BDRip [H.265 / 1080p-LQ] [10-bit] [Локализованная версия] торрент скачать бесплатно

    Дата: 27-11-2019, 05:00 | .torrent скачали: 2

    Головоломка / Inside Out (2015) BDRip [H.265 / 1080p-LQ] [10-bit] [Локализованная версия]Производство: США/Pixar Animation Studios, Walt Disney Pictures
    Жанр: мультфильм, семейный, комедия
    Режиссер: Пит Доктер, Роналдо Дель Кармен

    Описание
    Райли — обычная 11-летняя школьница, и, как у каждого из нас, ее поведение определяют пять базовых эмоций: Радость, Печаль, Страх, Гнев и Брезгливость. Эмоции живут в сознании девочки и каждый день помогают ей справляться с проблемами, руководя всеми ее поступками. До поры до времени эмоции живут дружно, но вдруг оказывается, что Райли и ее родителям предстоит переезд из небольшого уютного городка в шумный и людный мегаполис.

    Возраст: 6+ (зрителям, достигшим 6 лет)
    Рейтинг MPAA: PG (рекомендуется присутствие родителей)
    Релиз от: Mr. Fox (HEVC-CLUB)
    Продолжительность: 01: 34: 49
    Качество видео: BDRip
    Перевод: Дублированный (Лицензия)
    Язык озвучки: Русский, украинский, английский
    Субтитры: Русские, английские
    Видео: HEVC/H.265, 1920x1080, ~5677 Kbps
    Аудио 1: AC3, 6 ch, 640 Kbps - Русский, дублированный
    Аудио 2: AC3, 6 ch, 640 Kbps - Украинский, дублированный
    Аудио 3: AC3, 6 ch, 640 Kbps - Английский
    Общее
    Уникальный идентификатор : 239411717004896813738801758348064951172 (0xB41D04FCC082A89889003CFF2C858B84)
    Полное имя : R: Inside Out (2015) BDRip 1080p HEVC.mkv
    Формат : Matroska
    Версия формата : Version 4/Version 2
    Размер файла : 5, 03 Гбайт
    Продолжительность : 1 ч. 34 м.
    Общий поток : 7599 Кбит/сек
    Название фильма : Inside Out (2015)
    Дата кодирования : UTC 2019-11-24 16: 10: 51
    Программа кодирования : mkvmerge v40.0.0 (\'Old Town Road + Pony\') 64-bit
    Библиотека кодирования : libebml v1.3.9 + libmatroska v1.5.2
    Обложка : Yes
    Attachments : cover.jpg
    Видео
    Идентификатор : 1
    Формат : HEVC
    Формат/Информация : High Efficiency Video Coding
    Профиль формата : Main10@L4.1@High
    Идентификатор кодека : V_MPEGH/ISO/HEVC
    Продолжительность : 1 ч. 34 м.
    Битрейт : 5677 Кбит/сек
    Ширина : 1920 пикселей
    Высота : 1080 пикселей
    Соотношение сторон : 16: 9
    Режим частоты кадров : Постоянный
    Частота кадров : 23, 976 (23976/1000) кадра/сек
    Частота кадров в оригинале : 23, 976 (24000/1001) кадра/сек
    Цветовое пространство : YUV
    Субдискретизация насыщенности : 4: 2: 0
    Битовая глубина : 10 бит
    Бит/(Пиксели*Кадры) : 0.114
    Размер потока : 3, 76 Гбайт (75%)
    Библиотека кодирования : x265 3.2.1+1-b5c86a64bbbe: WindowsMSVC 192364 bit 10bit
    Настройки программы : cpuid=1111039/frame-threads=3/numa-pools=12/wpp/no-pmode/no-pme/no-psnr/no-ssim/log-level=2/input-csp=1/input-res=1920x1080/interlace=0/total-frames=136418/level-idc=41/high-tier=1/uhd-bd=0/ref=5/no-allow-non-conformance/no-repeat-t_heads/annexb/no-aud/no-hrd/info/hash=0/no-temporal-layers/open-gop/min-keyint=23/keyint=240/gop-lookahead=0/bframes=10/b-adapt=2/b-pyramid/bframe-bias=0/rc-lookahead=60/lookahead-slices=4/scenecut=40/radl=0/no-splice/no-intra-refresh/ctu=32/min-cu-size=8/rect/amp/max-tu-size=32/tu-inter-depth=4/tu-intra-depth=4/limit-tu=1/rdoq-level=2/dynamic-rd=0.00/no-ssim-rd/signhide/no-tskip/nr-intra=0/nr-inter=0/no-constrained-intra/no-strong-intra-smoothing/max-merge=4/limit-refs=2/limit-modes/me=3/subme=7/merange=57/temporal-mvp/no-hme/weightp/weightb/no-analyze-src-pics/deblock=-3: -3/no-sao/no-sao-non-deblock/rd=6/selective-sao=0/no-early-skip/no-rskip/no-fast-intra/no-tskip-fast/no-cu-lossless/no-b-intra/no-splitrd-skip/rdpenalty=0/psy-rd=2.00/psy-rdoq=1.00/no-rd-refine/no-lossless/cbqpoffs=0/crqpoffs=0/rc=crf/crf=20.0/qcomp=0.65/qpstep=4/stats-write=0/stats-read=0/vbv-maxrate=50000/vbv-bufsize=50000/vbv-init=0.9/crf-max=0.0/crf-min=0.0/ipratio=1.40/pbratio=1.30/aq-mode=1/aq-strength=1.00/no-cutree/zone-count=0/no-strict-cbr/qg-size=32/no-rc-grain/qpmax=69/qpmin=0/no-const-vbv/sar=1/overscan=0/videoformat=5/range=0/colorprim=1/transfer=1/colormatrix=1/chromaloc=0/display-window=0/cll=0, 0/min-luma=0/max-luma=1023/log2-max-poc-lsb=8/vui-timing-info/vui-hrd-info/slices=1/no-opt-qp-pps/no-opt-ref-list-length-pps/no-multi-pass-opt-rps/scenecut-bias=0.05/no-opt-cu-delta-qp/no-aq-motion/no-hdr/no-hdr-opt/no-dhdr10-opt/no-idr-recovery-sei/analysis-reuse-level=5/scale-factor=0/refine-intra=0/refine-inter=0/refine-mv=1/refine-ctu-distortion=0/no-limit-sao/ctu-info=0/no-lowpass-dct/refine-analysis-type=0/copy-pic=1/max-ausize-factor=1.0/no-dynamic-refine/no-single-sei/no-hevc-aq/no-svt/no-field/qp-adaptation-range=1.00
    Default : Да
    Forced : Нет
    Цветовой диапазон : Limited
    Основные цвета : BT.709
    Характеристики трансфера : BT.709
    Коэффициенты матрицы : BT.709
    Аудио #1
    Идентификатор : 2
    Формат : AC-3
    Формат/Информация : Audio Coding 3
    Идентификатор кодека : A_AC3
    Продолжительность : 1 ч. 34 м.
    Вид битрейта : Постоянный
    Битрейт : 640 Кбит/сек
    Каналы : 6 каналов
    Расположение каналов : Front: L C R, Side: L R, LFE
    Частота : 48, 0 КГц
    Частота кадров : 31, 250 кадров/сек (1536 SPF)
    Битовая глубина : 16 бит
    Метод сжатия : С потерями
    Размер потока : 434 Мбайт (8%)
    Заголовок : Дубляж, Blu-ray CEE
    Язык : Russian
    ServiceKind/String : Complete Main
    Default : Да
    Forced : Нет
    Аудио #2
    Идентификатор : 3
    Формат : AC-3
    Формат/Информация : Audio Coding 3
    Идентификатор кодека : A_AC3
    Продолжительность : 1 ч. 34 м.
    Вид битрейта : Постоянный
    Битрейт : 640 Кбит/сек
    Каналы : 6 каналов
    Расположение каналов : Front: L C R, Side: L R, LFE
    Частота : 48, 0 КГц
    Частота кадров : 31, 250 кадров/сек (1536 SPF)
    Битовая глубина : 16 бит
    Метод сжатия : С потерями
    Размер потока : 434 Мбайт (8%)
    Заголовок : Дубляж, Disney/Buena Vista
    Язык : Ukrainian
    ServiceKind/String : Complete Main
    Default : Нет
    Forced : Нет
    Аудио #3
    Идентификатор : 4
    Формат : AC-3
    Формат/Информация : Audio Coding 3
    Идентификатор кодека : A_AC3
    Продолжительность : 1 ч. 34 м.
    Вид битрейта : Постоянный
    Битрейт : 640 Кбит/сек
    Каналы : 6 каналов
    Расположение каналов : Front: L C R, Side: L R, LFE
    Частота : 48, 0 КГц
    Частота кадров : 31, 250 кадров/сек (1536 SPF)
    Битовая глубина : 16 бит
    Метод сжатия : С потерями
    Размер потока : 434 Мбайт (8%)
    Заголовок : English
    Язык : English
    ServiceKind/String : Complete Main
    Default : Нет
    Forced : Нет
    Текст #1
    Идентификатор : 5
    Формат : UTF-8
    Идентификатор кодека : S_TEXT/UTF8
    Идентификатор кодека/Информация : UTF-8 Plain Text
    Продолжительность : 1 ч. 26 м.
    Битрейт : 113 бит/сек
    ElementCount : 1255
    Размер потока : 72, 4 Кбайт (0%)
    Заголовок : Russian
    Язык : Russian
    Default : Нет
    Forced : Нет
    Текст #2
    Идентификатор : 6
    Формат : UTF-8
    Идентификатор кодека : S_TEXT/UTF8
    Идентификатор кодека/Информация : UTF-8 Plain Text
    Продолжительность : 1 ч. 26 м.
    Битрейт : 74 бит/сек
    ElementCount : 1378
    Размер потока : 47, 7 Кбайт (0%)
    Заголовок : English
    Язык : English
    Default : Нет
    Forced : Нет
    Меню
    00: 00: 00.000 : : Chapter 01
    00: 07: 22.692 : : Chapter 02
    00: 11: 36.779 : : Chapter 03
    00: 15: 46.403 : : Chapter 04
    00: 20: 02.242 : : Chapter 05
    00: 25: 21.436 : : Chapter 06
    00: 26: 47.063 : : Chapter 07
    00: 30: 10.183 : : Chapter 08
    00: 34: 45.791 : : Chapter 09
    00: 36: 02.285 : : Chapter 10
    00: 37: 45.304 : : Chapter 11
    00: 41: 27.359 : : Chapter 12
    00: 43: 35.612 : : Chapter 13
    00: 45: 19.508 : : Chapter 14
    00: 46: 51.850 : : Chapter 15
    00: 50: 02.457 : : Chapter 16
    00: 51: 34.341 : : Chapter 17
    00: 56: 12.160 : : Chapter 18
    01: 00: 03.683 : : Chapter 19
    01: 01: 17.840 : : Chapter 20
    01: 03: 50.367 : : Chapter 21
    01: 06: 27.191 : : Chapter 22
    01: 11: 15.771 : : Chapter 23
    01: 13: 40.540 : : Chapter 24
    01: 15: 38.658 : : Chapter 25
    01: 20: 00.336 : : Chapter 26
    01: 23: 57.198 : : Chapter 27
    01: 26: 18.339 : : Chapter 28


    Онлайн видео Головоломка



    Головоломка/Inside Out (2015) BDRip [H.265/1080p-LQ] [10-bit] [Локализованная версия]
    Рейтинг →
     (голосов: 1, оценка 5/5, голосовать можно 1 раз )

    Другие торренты по теме:

  • Головоломка / Inside Out (2015) WEBRip [1080p] [Трейлер]
  • Головоломка / Inside Out (2015) CamRip скачать через торрент бесплатно
  • Головоломка / Inside Out (2015) WEBRip [Звук с TS] скачать через торрент бесплатно
  • Головоломка / Inside Out (2015) WEBRip [H.264 / 720p-LQ] [звук с TS] скачать через торрент бесплатно
  • Головоломка / Inside Out (2015) HDTVRip [H.264 / 720p-LQ] [Line] скачать через торрент бесплатно
  • Головоломка / Inside Out (2015) HDTVRip [Line] скачать через торрент бесплатно
  • Головоломка / Inside Out (2015) WEB-DL [H.264 / 1080p-LQ] скачать через торрент бесплатно
  • Головоломка / Inside Out (2015) WEB-DLRip [H.264] скачать через торрент бесплатно


    • Комментарии (0):

      Информация

      Информация

        Посетители, находящиеся в группе Гости, не могут оставлять комментарии в данной новости.

        ↓ Меню




        ↓ Опрос

        Вы добавили сайт в закладки?
        Да
        Нет


        Популярное