.
Авторизация | Регистрация
bitok.xyz
» » Ничуть не страшно (1981) WEB-DLRip [H.264] торрент скачать бесплатно


    Ничуть не страшно (1981) WEB-DLRip [H.264] торрент скачать бесплатно

    Дата: 27-11-2019, 05:00 | .torrent скачали: 0

    Ничуть не страшно (1981) WEB-DLRip [H.264]Производство: СССР, Союзмультфильм
    Жанр: Рисованная анимация, Детский, Мультфильм
    Режиссер: Леонид Каюков

    Описание

    Два брата отправляются в ночное путешествие за цветами для подарка своей маме. Их пытаются напугать три Страха, но мальчики смело преодолевают все препятствия, и тогда Страхи решают помочь им вернуться обратно.

    Возраст: 0+ (для любой зрительской аудитории)
    Релиз от: lexx256 ®
    Продолжительность: 00: 10: 03
    Качество видео: WEB-DLRip
    Субтитры: отсутствуют
    Видео: AVC/H.264, 720x546, ~2627 Kbps
    Аудио: AC3, 2 ch, 192 Kbps
    General
    Unique ID : 131332030983310451784229235504032239385 (0x62CDA10D893FF2F337DBFB7D17DFCF19)
    Complete name : C: Ничуть не страшно-1981 (WEB-DLRip By lexx256).mkv
    Format : Matroska
    Format version : Version 4
    File size : 203 MiB
    Duration : 10 min 3 s
    Overall bit rate : 2 821 kb/s
    Encoded date : UTC 2019-11-26 08: 44: 10
    Writing application : mkvmerge v35.0.0 (\'All The Love In The World\') 64-bit
    Writing library : libebml v1.3.9 + libmatroska v1.5.2
    Video
    ID : 1
    Format : AVC
    Format/Info : Advanced Video Codec
    Format profile : High@L3.1
    Format settings : CABAC/9 Ref Frames
    Format settings, CABAC : Yes
    Format settings, ReFrames : 9 frames
    Codec ID : V_MPEG4/ISO/AVC
    Duration : 10 min 3 s
    Bit rate : 2 627 kb/s
    Nominal bit rate : 3 000 kb/s
    Width : 720 pixels
    Height : 546 pixels
    Display aspect ratio : 4: 3
    Frame rate mode : Constant
    Frame rate : 25.000 FPS
    Color space : YUV
    Chroma subsampling : 4: 2: 0
    Bit depth : 8 bits
    Scan type : Progressive
    Bits/(Pixel*Frame) : 0.267
    Stream size : 189 MiB (93%)
    Writing library : x264 core 157 r2958 57baac4
    Encoding settings : cabac=1/ref=9/deblock=1: 0: 0/analyse=0x3: 0x133/me=esa/subme=9/psy=1/psy_rd=1.00: 0.20/mixed_ref=1/me_range=24/chroma_me=1/trellis=1/8x8dct=1/cqm=0/deadzone=21, 11/fast_pskip=1/chroma_qp_offset=-3/threads=9/lookahead_threads=1/sliced_threads=0/nr=0/decimate=1/interlaced=0/bluray_compat=0/constrained_intra=0/bframes=9/b_pyramid=2/b_adapt=2/b_bias=0/direct=3/weightb=1/open_gop=0/weightp=2/keyint=250/keyint_min=25/scenecut=40/intra_refresh=0/rc_lookahead=40/rc=cbr/mbtree=1/bitrate=3000/ratetol=1.0/qcomp=0.60/qpmin=0/qpmax=69/qpstep=4/vbv_maxrate=3000/vbv_bufsize=2142/nal_hrd=none/filler=0/ip_ratio=1.40/aq=1: 1.00
    Language : Russian
    Default : Yes
    Forced : No
    Color range : Limited
    Matrix coefficients : BT.709
    Audio
    ID : 2
    Format : AC-3
    Format/Info : Audio Coding 3
    Commercial name : Dolby Digital
    Codec ID : A_AC3
    Duration : 10 min 3 s
    Bit rate mode : Constant
    Bit rate : 192 kb/s
    Channel(s) : 2 channels
    Channel layout : L R
    Sampling rate : 44.1 kHz
    Frame rate : 28.711 FPS (1536 SPF)
    Bit depth : 16 bits
    Compression mode : Lossy
    Stream size : 13.8 MiB (7%)
    Language : Russian
    Service kind : Complete Main
    Default : Yes
    Forced : No

    Скриншоты для ознакомления



    Все одноименные релизы в Клубе
    Время раздачи: До первых скачавших (до появления первых 3-5 скачавших)

    Онлайн видео Ничуть не страшно (1981) WEB



    Ничуть не страшно (1981) WEB-DLRip [H.264]
    Рейтинг →
     (голосов: 1, оценка 3/5, голосовать можно 1 раз )

    Другие торренты по теме:



      Комментарии (0):

      Информация

      Информация

        Посетители, находящиеся в группе Гости, не могут оставлять комментарии в данной новости.

        ↓ Меню




        ↓ Опрос

        Вы добавили сайт в закладки?
        Да
        Нет


        Популярное