.
Авторизация | Регистрация
bitok.xyz
» » Ивашка из дворца пионеров (1981) WEB-DLRip [H.264] торрент скачать бесплатно


    Ивашка из дворца пионеров (1981) WEB-DLRip [H.264] торрент скачать бесплатно

    Дата: 28-11-2019, 05:00 | .torrent скачали: 0

    Ивашка из дворца пионеров (1981) WEB-DLRip [H.264]Производство: СССР, Союзмультфильм
    Жанр: Рисованная анимация, Детский, Мультфильм
    Режиссер: Геннадий Сокольский

    Описание

    У Бабы Яги именины, приглашены гости, которых она хочет угостить чем-то вкусным. Как водится, посылает она гусей-лебедей за упитанным мальчиком, которым оказывается Уфимцев Ваня из Дворца пионеров.

    Возраст: 6+ (зрителям, достигшим 6 лет)
    Релиз от: lexx256 ®
    Продолжительность: 00: 09: 25
    Качество видео: WEB-DLRip
    Субтитры: отсутствуют
    Видео: AVC/H.264, 720x546, ~2831 Kbps
    Аудио: AC3, 2 ch, 192 Kbps
    General
    Unique ID : 9589421748218975273938306757563686552 (0x736DAFEBBC918F518E8B754EDF29E98)
    Complete name : C: Ивашка из Дворца пионеров-1981 (WEB-DLRip By lexx256).mkv
    Format : Matroska
    Format version : Version 4
    File size : 204 MiB
    Duration : 9 min 25 s
    Overall bit rate : 3 025 kb/s
    Encoded date : UTC 2019-11-26 20: 54: 03
    Writing application : mkvmerge v35.0.0 (\'All The Love In The World\') 64-bit
    Writing library : libebml v1.3.9 + libmatroska v1.5.2
    Video
    ID : 1
    Format : AVC
    Format/Info : Advanced Video Codec
    Format profile : High@L3.1
    Format settings : CABAC/9 Ref Frames
    Format settings, CABAC : Yes
    Format settings, ReFrames : 9 frames
    Codec ID : V_MPEG4/ISO/AVC
    Duration : 9 min 25 s
    Bit rate : 2 831 kb/s
    Nominal bit rate : 3 300 kb/s
    Width : 720 pixels
    Height : 546 pixels
    Display aspect ratio : 4: 3
    Frame rate mode : Constant
    Frame rate : 25.000 FPS
    Color space : YUV
    Chroma subsampling : 4: 2: 0
    Bit depth : 8 bits
    Scan type : Progressive
    Bits/(Pixel*Frame) : 0.288
    Stream size : 191 MiB (94%)
    Writing library : x264 core 157 r2958 57baac4
    Encoding settings : cabac=1/ref=9/deblock=1: 0: 0/analyse=0x3: 0x133/me=esa/subme=9/psy=1/psy_rd=1.00: 0.20/mixed_ref=1/me_range=24/chroma_me=1/trellis=1/8x8dct=1/cqm=0/deadzone=21, 11/fast_pskip=1/chroma_qp_offset=-3/threads=9/lookahead_threads=1/sliced_threads=0/nr=0/decimate=1/interlaced=0/bluray_compat=0/constrained_intra=0/bframes=9/b_pyramid=2/b_adapt=2/b_bias=0/direct=3/weightb=1/open_gop=0/weightp=2/keyint=250/keyint_min=25/scenecut=40/intra_refresh=0/rc_lookahead=40/rc=cbr/mbtree=1/bitrate=3300/ratetol=1.0/qcomp=0.60/qpmin=0/qpmax=69/qpstep=4/vbv_maxrate=3300/vbv_bufsize=2357/nal_hrd=none/filler=0/ip_ratio=1.40/aq=1: 1.00
    Language : Russian
    Default : Yes
    Forced : No
    Color range : Limited
    Matrix coefficients : BT.709
    Audio
    ID : 2
    Format : AC-3
    Format/Info : Audio Coding 3
    Commercial name : Dolby Digital
    Codec ID : A_AC3
    Duration : 9 min 25 s
    Bit rate mode : Constant
    Bit rate : 192 kb/s
    Channel(s) : 2 channels
    Channel layout : L R
    Sampling rate : 44.1 kHz
    Frame rate : 28.711 FPS (1536 SPF)
    Bit depth : 16 bits
    Compression mode : Lossy
    Stream size : 12.9 MiB (6%)
    Language : Russian
    Service kind : Complete Main
    Default : Yes
    Forced : No

    Скриншоты для ознакомления



    Все одноименные релизы в Клубе
    Время раздачи: До первых скачавших (до появления первых 3-5 скачавших)

    Онлайн видео Ивашка из дворца пионеров (1981) WEB



    Ивашка из дворца пионеров (1981) WEB-DLRip [H.264]
    Рейтинг →
     (голосов: 1, оценка 5/5, голосовать можно 1 раз )

    Другие торренты по теме:



      Комментарии (0):

      Информация

      Информация

        Посетители, находящиеся в группе Гости, не могут оставлять комментарии в данной новости.

        ↓ Меню




        ↓ Опрос

        Вы добавили сайт в закладки?
        Да
        Нет


        Популярное