.
Авторизация | Регистрация
bitok.xyz
» » Король Лев / The Lion King (2019) BDRip [H.264 / 720p-LQ] торрент скачать бесплатно


    Король Лев / The Lion King (2019) BDRip [H.264 / 720p-LQ] торрент скачать бесплатно

    Дата: 28-11-2019, 05:00 | .torrent скачали: 1

    Король Лев / The Lion King (2019) BDRip [H.264 / 720p-LQ]Производство: США/Walt Disney Pictures, Fairview Entertainment
    Жанр: Мультфильм, мюзикл, драма, приключения, семейный
    Режиссер: Джон Фавро

    Актеры
    Джеймс Эрл Джонс, Дональд Гловер, Чиветел Эджиофор, Джон Оливер, Джон Кани, Элфри Вудард, Джейдон Маккрэри, Шахади Райт Джозеф, Пенни Джонсон, Кигэн-Майкл Ки

    Описание

    История об отважном львенке по имени Симба. Знакомые с детства герои взрослеют, влюбляются, познают себя и окружающий мир, совершают ошибки и делают правильный выбор.

    Возраст: 6+ (зрителям, достигшим 6 лет)
    Рейтинг MPAA: PG (рекомендуется присутствие родителей)
    Дата мировой премьеры: 9 июля 2019
    Дата российской премьеры: 18 июля 2019
    Релиз от: k.e.n MegaPeer
    Продолжительность: 01: 58: 14
    Качество видео: BDRip 720p
    Перевод: Дублированный (BD EUR)
    Субтитры: русские, английские
    Видео: AVC, 1280x720, 23.976 fps, 4396 Kbps
    Аудио #1: AC3, 48 KHz, 6 ch, 448 Kbps - Русский, DUB
    Аудио #2: AC3, 48 KHz, 6 ch, 448 Kbps - Английский, OriginalПолное имя : D: Король Лев.2019 (реж.Д.Фавро).k.e.n MegaPeer.mkv
    Формат : Matroska
    Версия формата : Version 2
    Размер файла : 4, 37 Гбайт
    Продолжительность : 1 ч. 58 м.
    Общий поток : 5295 Кбит/сек
    Дата кодирования : UTC 2019-11-26 21: 57: 23
    Программа кодирования : mkvmerge v5.3.0 (\'I could have danced\') built on Feb 9 2012 10: 38: 07
    Библиотека кодирования : libebml v1.2.3 + libmatroska v1.3.0
    Обложка : Yes
    Attachments : cover (3).jpg
    Видео
    Идентификатор : 1
    Формат : AVC
    Формат/Информация : Advanced Video Codec
    Профиль формата : High@L4.1
    Настройки формата : CABAC/9 Ref Frames
    Параметр CABAC формата : Да
    Параметр RefFrames формата : 9 кадров
    Идентификатор кодека : V_MPEG4/ISO/AVC
    Продолжительность : 1 ч. 58 м.
    Битрейт : 4396 Кбит/сек
    Ширина : 1280 пикселей
    Высота : 720 пикселей
    Соотношение сторон : 16: 9
    Режим частоты кадров : Постоянный
    Частота кадров : 23, 976 (24000/1001) кадра/сек
    Цветовое пространство : YUV
    Субдискретизация насыщенности : 4: 2: 0
    Битовая глубина : 8 бит
    Тип развёртки : Прогрессивная
    Бит/(Пиксели*Кадры) : 0.199
    Размер потока : 3, 55 Гбайт (81%)
    Библиотека кодирования : x264 core 157 r2945 72db437
    Настройки программы : cabac=1/ref=9/deblock=1: -3: -3/analyse=0x3: 0x133/me=umh/subme=11/psy=1/psy_rd=1.00: 0.00/mixed_ref=1/me_range=32/chroma_me=1/trellis=2/8x8dct=1/cqm=0/deadzone=21, 11/fast_pskip=0/chroma_qp_offset=-2/threads=12/lookahead_threads=3/sliced_threads=0/nr=0/decimate=0/interlaced=0/bluray_compat=0/constrained_intra=0/bframes=10/b_pyramid=2/b_adapt=2/b_bias=0/direct=3/weightb=1/open_gop=0/weightp=2/keyint=240/keyint_min=23/scenecut=40/intra_refresh=0/rc_lookahead=40/rc=2pass/mbtree=0/bitrate=4396/ratetol=1.0/qcomp=0.65/qpmin=0/qpmax=69/qpstep=4/cplxblur=20.0/qblur=0.5/vbv_maxrate=50000/vbv_bufsize=62500/nal_hrd=none/filler=0/ip_ratio=1.30/pb_ratio=1.30/aq=3: 0.90
    Язык : English
    Default : Да
    Forced : Нет
    Цветовой диапазон : Limited
    Основные цвета : BT.709
    Характеристики трансфера : BT.709
    Коэффициенты матрицы : BT.709
    Аудио #1
    Идентификатор : 2
    Формат : AC-3
    Формат/Информация : Audio Coding 3
    Коммерческое название : Dolby Digital
    Идентификатор кодека : A_AC3
    Продолжительность : 1 ч. 58 м.
    Вид битрейта : Постоянный
    Битрейт : 448 Кбит/сек
    Каналы : 6 каналов
    ChannelLayout : L R C LFE Ls Rs
    Частота : 48, 0 КГц
    Частота кадров : 31, 250 кадров/сек (1536 SPF)
    Битовая глубина : 16 бит
    Метод сжатия : С потерями
    Размер потока : 379 Мбайт (8%)
    Заголовок : DUB
    Язык : Russian
    ServiceKind/String : Complete Main
    Default : Да
    Forced : Да
    Аудио #2
    Идентификатор : 3
    Формат : AC-3
    Формат/Информация : Audio Coding 3
    Коммерческое название : Dolby Digital
    Идентификатор кодека : A_AC3
    Продолжительность : 1 ч. 58 м.
    Вид битрейта : Постоянный
    Битрейт : 448 Кбит/сек
    Каналы : 6 каналов
    ChannelLayout : L R C LFE Ls Rs
    Частота : 48, 0 КГц
    Частота кадров : 31, 250 кадров/сек (1536 SPF)
    Битовая глубина : 16 бит
    Метод сжатия : С потерями
    Размер потока : 379 Мбайт (8%)
    Заголовок : Original
    Язык : English
    ServiceKind/String : Complete Main
    Default : Нет
    Forced : Нет
    Текст #1
    Идентификатор : 4
    Формат : UTF-8
    Идентификатор кодека : S_TEXT/UTF8
    Идентификатор кодека/Информация : UTF-8 Plain Text
    Заголовок : Full
    Язык : Russian
    Default : Нет
    Forced : Нет
    Текст #2
    Идентификатор : 5
    Формат : UTF-8
    Идентификатор кодека : S_TEXT/UTF8
    Идентификатор кодека/Информация : UTF-8 Plain Text
    Заголовок : Full
    Язык : English
    Default : Нет
    Forced : Нет
    Текст #3
    Идентификатор : 6
    Формат : UTF-8
    Идентификатор кодека : S_TEXT/UTF8
    Идентификатор кодека/Информация : UTF-8 Plain Text
    Заголовок : SDH
    Язык : Russian
    Default : Нет
    Forced : Нет
    Меню
    00: 00: 00.000 : en: Circle Of Life/Nants\' Ingonyama
    00: 04: 50.499 : en: Life\'s Not Fair
    00: 10: 51.067 : en: Everything The Light Touches
    00: 17: 47.692 : en: I Just Can\'t Wait To Be King
    00: 23: 53.015 : en: Elephant Graveyard
    00: 30: 00.132 : en: Under The Stars
    00: 33: 05.066 : en: Be Prepared
    00: 37: 09.310 : en: Stampede
    00: 43: 42.912 : en: Scar Takes Over
    00: 50: 47.336 : en: Timon And Pumbaa
    00: 55: 02.716 : en: Hakuna Matata
    00: 59: 48.460 : en: Scar\'s Kingdom
    01: 06: 27.233 : en: Line Of Indifference
    01: 14: 32.093 : en: The Lion Sleeps Tonight
    01: 18: 26.410 : en: Can You Feel The Love Tonight
    01: 23: 07.900 : en: He Lives In You
    01: 28: 04.654 : en: Spirit
    01: 33: 10.877 : en: Simba Confronts Scar
    01: 37: 13.745 : en: Battle For Pride Rock
    01: 44: 39.190 : en: The Rightful King
    01: 47: 47.336 : en: End Credits/Never Too Late
    Скриншоты для ознакомления



    Все одноименные релизы в Клубе
    Время раздачи: c 5 до 19 мск (до появления первых 3-5 скачавших)

    Онлайн видео Король Лев



    Король Лев/The Lion King (2019) BDRip [H.264/720p-LQ]
    Рейтинг →
     (голосов: 1, оценка 4/5, голосовать можно 1 раз )

    Другие торренты по теме:

  • Король Лев / The Lion King (2019) Blu-ray [H.264 / 1080p] [EUR]
  • Король Лев / The Lion King (1994) BDRip [1080p] 3D [Вертикальная анаморфная стереопара]
  • Король Лев / The Lion King (1994) BDRip [H.265 / 1080p]
  • Лев Лео, король джунглей / Leo the Lion: King of the Jungle (1994) DVDRip
  • Король Лев / The Lion King (1994) BDRip [H.264 / 1080p-LQ]
  • Король Лев / The Lion King (1994-2004) Blu-Ray [1080p] [Трилогия]
  • Король Лев / The Lion King (1994) UHD BDRemux [H.265 / 2160p] [4K, HDR, 10-bit]
  • Король Лев / The Lion King (1994) BDRip [H.264] [MP4|1280x720] [VO]


    • Комментарии (0):

      Информация

      Информация

        Посетители, находящиеся в группе Гости, не могут оставлять комментарии в данной новости.

        ↓ Меню




        ↓ Опрос

        Вы добавили сайт в закладки?
        Да
        Нет


        Популярное