.
Авторизация | Регистрация
bitok.xyz
» » Toki o Kakeru Shoujo | The Girl Who Leapt Through Time | Девочка, Покорившая Время [2006, Movie] BDRip 1080p 10-bit raw+rus торрент скачать бесплатно


    Toki o Kakeru Shoujo | The Girl Who Leapt Through Time | Девочка, Покорившая Время [2006, Movie] BDRip 1080p 10-bit raw+rus торрент скачать бесплатно

    Дата: 28-11-2019, 05:00 | .torrent скачали: 0

    Toki o Kakeru Shoujo | The Girl Who Leapt Through Time | Девочка, Покорившая Время [2006, Movie] BDRip 1080p 10-bit raw+rusТип: Movie
    Жанр: Приключения, Фантастика, Романтика, Драма
    Продолжительность: 01: 38: 19
    Дата выпуска: 15.07.2006
    Автор оригинала: Цуцуй Ясутака
    Режиссер: Хосода Мамору
    Производство: Япония

    Ссылки: World-Art |AniDB |MyAnimelist |Shikimori

    Описание

    Способность путешествовать во времени... она может быть использована как на благо людей, так и ради собственной корыстной выгоды. Как бы поступили вы, имея такую возможность?
    Школьница Макото Конно непонятным для себя образом обретает эту способность и вскоре начинает совершать прыжки в прошлое, каждый раз изменяя какую-то мелочь, тем самым облегчая себе жизнь или исправляя собственные промахи.
    Поначалу все идет замечательно, но вскоре Макото понимает, что каждое такое изменение влечет за собой последствия, подчас драматичные, а порой и трагичные для окружающих её людей...
    Автор: morrmorr© Shikimori
    Качество видео: BDRip
    Видео: x264 , 1920x1080, 23.976 fps, 4 799 kb/s, 0.097 bpp10bit Philosophy-Raws
    Язык Озвучки: Японский и Русский
    Аудио 1: AC3, Встроенное, 5.1 , 48.0 kHz, 448 kb/s(STEPonee MVO)
    Аудио 2: AC3, Встроенное, 5.1 , 48.0 kHz, 448 kb/s(Reanimedia Дубляж)
    Аудио 3: FLAC, Встроенное, 5.1 , 48.0 kHz, 1 810 kb/s(Original)
    Субтитры: Русские
    Перевод 1: Полные(Reanimedia)

    Скриншоты для ознакомления


    General
    Unique ID : 27744315055492930100419393488953415162 (0x14DF5C57D4A2D4762C4B23EC227E15FA)
    Complete name : J: АнимеДевочка, Покорившая Время (Toki wo Kakeru Shoujo) BDRip (2006).mkv
    Format : Matroska
    Format version : Version 4
    File size : 5.16 GiB
    Duration : 1 h 38 min
    Overall bit rate mode : Variable
    Overall bit rate : 7 500 kb/s
    Encoded date : UTC 2019-11-26 09: 06: 10
    Writing application : mkvmerge v38.0.0 (\'The Silent Type\') 64-bit
    Writing library : libebml v1.3.9 + libmatroska v1.5.2
    Cover : Yes
    Attachments : cover.png/TANGODI.TTF
    Video
    ID : 1
    Format : AVC
    Format/Info : Advanced Video Codec
    Format profile : High 10@L5
    Format settings : CABAC/8 Ref Frames
    Format settings, CABAC : Yes
    Format settings, Reference : 8 frames
    Codec ID : V_MPEG4/ISO/AVC
    Duration : 1 h 38 min
    Bit rate : 4 799 kb/s
    Width : 1 920 pixels
    Height : 1 080 pixels
    Display aspect ratio : 16: 9
    Frame rate mode : Constant
    Frame rate : 23.976 (24000/1001) FPS
    Color space : YUV
    Chroma subsampling : 4: 2: 0
    Bit depth : 10 bits
    Scan type : Progressive
    Bits/(Pixel*Frame) : 0.097
    Stream size : 3.30 GiB (64%)
    Writing library : x264 core 138 r2359+704+48 3f879a0 tMod 10-bit@4: 2: 0 X86_64
    Encoding settings : cabac=1/ref=8/deblock=1: 0: 0/analyse=0x3: 0x133/me=umh/subme=10/psy=1/fade_compensate=0.00/psy_rd=0.60: 0.10/mixed_ref=1/me_range=32/chroma_me=1/trellis=2/8x8dct=1/cqm=0/deadzone=21, 11/fast_pskip=0/chroma_qp_offset=-3/threads=24/lookahead_threads=6/sliced_threads=0/nr=0/decimate=0/interlaced=0/bluray_compat=0/constrained_intra=0/fgo=0/bframes=12/b_pyramid=2/b_adapt=2/b_bias=0/direct=3/weightb=1/open_gop=0/weightp=2/keyint=infinite/keyint_min=1/scenecut=40/intra_refresh=0/rc_lookahead=60/rc=crf/mbtree=1/crf=16.0000/qcomp=0.70/qpmin=0: 0: 0/qpmax=81: 81: 81/qpstep=4/ip_ratio=1.40/aq=3: 0.70/aq-sensitivity=10.00/aq-factor=1.00: 1.00: 1.00/aq2=0/aq3=0
    Language : Japanese
    Default : Yes
    Forced : No
    Audio #1
    ID : 2
    Format : AC-3
    Format/Info : Audio Coding 3
    Commercial name : Dolby Digital
    Codec ID : A_AC3
    Duration : 1 h 38 min
    Bit rate mode : Constant
    Bit rate : 448 kb/s
    Channel(s) : 6 channels
    Channel layout : L R C LFE Ls Rs
    Sampling rate : 48.0 kHz
    Frame rate : 31.250 FPS (1536 SPF)
    Compression mode : Lossy
    Stream size : 316 MiB (6%)
    Title : STEPonee
    Language : Russian
    Service kind : Complete Main
    Default : Yes
    Forced : No
    Audio #2
    ID : 3
    Format : AC-3
    Format/Info : Audio Coding 3
    Commercial name : Dolby Digital
    Codec ID : A_AC3
    Duration : 1 h 38 min
    Bit rate mode : Constant
    Bit rate : 448 kb/s
    Channel(s) : 6 channels
    Channel layout : L R C LFE Ls Rs
    Sampling rate : 48.0 kHz
    Frame rate : 31.250 FPS (1536 SPF)
    Compression mode : Lossy
    Stream size : 315 MiB (6%)
    Title : Reanimedia
    Language : Russian
    Service kind : Complete Main
    Default : No
    Forced : No
    Audio #3
    ID : 4
    Format : FLAC
    Format/Info : Free Lossless Audio Codec
    Codec ID : A_FLAC
    Duration : 1 h 38 min
    Bit rate mode : Variable
    Bit rate : 1 810 kb/s
    Channel(s) : 6 channels
    Channel layout : L R C LFE Ls Rs
    Sampling rate : 48.0 kHz
    Frame rate : 11.719 FPS (4096 SPF)
    Bit depth : 24 bits
    Compression mode : Lossless
    Stream size : 1.24 GiB (24%)
    Title : Original
    Writing library : libFLAC 1.2.1 (UTC 2007-09-17)
    Language : Japanese
    Default : No
    Forced : No
    Text
    ID : 5
    Format : ASS
    Codec ID : S_TEXT/ASS
    Codec ID/Info : Advanced Sub Station Alpha
    Duration : 1 h 37 min
    Bit rate : 136 b/s
    Count of elements : 1332
    Compression mode : Lossless
    Stream size : 97.3 KiB (0%)
    Title : Full (Reanimedia)
    Language : Russian
    Default : Yes
    Forced : No
    ОзвучкаSTEPonee эксклюзивно дляNNM-Club. Распространение на другие трекеры только по согласованию со мной вЛС !
    Время раздачи: С 8: 00 по 21: 00 МСК (До появления первых3-5 скачавших)

    Онлайн видео Toki o Kakeru Shoujo



    Toki o Kakeru Shoujo | The Girl Who Leapt Through Time | Девочка, Покорившая Время [2006, Movie] BDRip 1080p 10-bit raw+rus
    Рейтинг →
     (голосов: 1, оценка 3/5, голосовать можно 1 раз )

    Другие торренты по теме:

  • Ikemen Sengoku: Toki o Kakeru ga Koi wa Hajimaranai | Красавчики из эпохи Сенгоку: Любовь, что пролетает сквозь время [2017, TV, 2 из 12] WEBRip 720p rus


    • Комментарии (0):

      Информация

      Информация

        Посетители, находящиеся в группе Гости, не могут оставлять комментарии в данной новости.

        ↓ Меню




        ↓ Опрос

        Вы добавили сайт в закладки?
        Да
        Нет


        Популярное

        Футурама / Futurama (1999-2013) DVDRip (7 Сезонов, 140 серии) скачать через торрент бесплатно

        (скачиваний: 77)
        Малышарики (2015-2019) WEB-DL [H.264 / 1080p-LQ] (серии 1-154 из 208) [Обновляемая]

        (скачиваний: 67)
        Жила-была царевна (2015-2019) WEB-DLRip [H.264 / 720p-LQ] (сезон 1, серии 1-18 из 26) [Обновляемая]

        (скачиваний: 43)
        Металионы / Metalions (2018-2019) WEB-DLRip [H.264 / 720p-LQ] (сезон 1, серии 1-52 из 52) [Обновляемая]

        (скачиваний: 34)
        Рик и Морти / Rick and Morty (2013) BDRip [H.264 / 1080p] (Сезон 1, серии 1-11 из 11) Сыендук [EN Sub] скачать через торрент бесплатно

        (скачиваний: 34)
        Три кота (2018) WEB-DLRip [H.264 / 720p-LQ] (сезон 3, серии 105-106 из 156)

        (скачиваний: 29)
        В гостях у сказки (сборник 56 фильмов) (1939-2009) DVDRip

        (скачиваний: 29)
        Спокойной ночи, малыши! (2009, 2015) SATRip, TVRip (83 выпусков)

        (скачиваний: 19)
        Рик и Морти / Rick and Morty (2013) BDRip [H.264 / 720p-LQ] (сезон 1, серии 1-11 из 11) Сыендук

        (скачиваний: 18)
        Рик и Морти / Rick and Morty (2015) WEB-DL [H.264 / 1080p] (Сезон 2, серии 1-10 из 10) Сыендук [EN / RU Sub] скачать через торрент бесплатно

        (скачиваний: 17)