.
Авторизация | Регистрация
bitok.xyz
» » Поезд памяти (1975) SATRip торрент скачать бесплатно


    Поезд памяти (1975) SATRip торрент скачать бесплатно

    Дата: 29-11-2019, 05:00 | .torrent скачали: 0

    Поезд памяти (1975) SATRipПроизводство: СССР, Союзмультфильм
    Жанр: Рисованная анимация, Короткометражный
    Режиссер: Николай Серебряков

    Актеры
    Алиса Фрейндлих, Михаил Боярский

    Описание

    Экранизация по стихотворениям Пабло Неруды

    Возраст: этот продукт не был классифицирован
    Релиз от: ITAR-TASS
    Продолжительность: 00: 18: 17
    Качество видео: SATRip
    Субтитры: отсутствуют
    Видео: XviD, 640x480, 2 244 Kbps
    Аудио: MP3, 2 ch, 192 Kbps
    Общее
    Полное имя : G: Поезд памяти (1975).avi
    Формат : AVI
    Формат/Информация : Audio Video Interleave
    Размер файла : 320 Мбайт
    Продолжительность : 18 м. 17 с.
    Общий поток : 2445 Кбит/сек
    Название фильма : Поезд памяти (1975)(SATRip)
    Дата мастеринга : 02.10.11
    Программа кодирования : VirtualDubMod 1.5.10.3 (build 2550/release) VirtualDubMod build 2550/release
    Формат оригинала/Имя : мультфильм
    Видео
    Идентификатор : 0
    Формат : MPEG-4 Visual
    Профиль формата : Advanced Simple@L5
    Параметр BVOP формата : 2
    Параметр QPel формата : Нет
    Параметр GMC формата : Без точки перехода
    Параметр матрицы формата : Выборочная
    Идентификатор кодека : XVID
    Идентификатор кодека/Подсказка : XviD
    Продолжительность : 18 м. 17 с.
    Битрейт : 2244 Кбит/сек
    Ширина : 640 пикселей
    Высота : 480 пикселей
    Соотношение сторон : 4: 3
    Частота кадров : 25, 000 кадров/сек
    Цветовое пространство : YUV
    Субдискретизация насыщенности : 4: 2: 0
    Битовая глубина : 8 бит
    Тип развёртки : Прогрессивная
    Метод сжатия : С потерями
    Бит/(Пиксели*Кадры) : 0.292
    Размер потока : 294 Мбайт (92%)
    Библиотека кодирования : XviD 64
    Аудио
    Идентификатор : 1
    Формат : MPEG Audio
    Версия формата : Version 1
    Профиль формата : Layer 3
    Идентификатор кодека : 55
    Идентификатор кодека/Подсказка : MP3
    Продолжительность : 18 м. 17 с.
    Вид битрейта : Постоянный
    Битрейт : 192 Кбит/сек
    Каналы : 2 канала
    Частота : 48, 0 КГц
    Метод сжатия : С потерями
    Размер потока : 25, 1 Мбайт (8%)
    Выравнивание : Соединение по промежуткам
    Продолжительность промежутка : 40 мс. (1, 00 видеокадр)
    Время предзагрузки промежутка : 504 мс.
    Библиотека кодирования : LAME3.98r
    Настройки программы : -m s -V 4 -q 0 -lowpass 18.6 -b 192
    Язык : Не определен

    Скриншоты для ознакомления



    Все одноименные релизы в Клубе
    Время раздачи: с 11: 00 до 01: 00 (до появления первых 3-5 скачавших)

    Поезд памяти (1975) SATRip
    Рейтинг →
     (голосов: 1, оценка 4/5, голосовать можно 1 раз )

    Другие торренты по теме:

  • Поезд сирот / Поезд с сиротами / Orphan Train (1979) TVRip скачать через торрент бесплатно
  • Денежный поезд / Money Train (1995) BDRemux [1080p] скачать через торрент бесплатно
  • Поезд на Юму / 3:10 to Yuma (2007) BDRemux [1080p]
  • Поезд на Юму / 3:10 to Yuma (2007) HDRip [AVO] скачать через торрент бесплатно
  • Денежный поезд / Money Train (1995) BDRip [720p]
  • Денежный поезд / Money Train (1995) HDRip [AVO] скачать через торрент бесплатно
  • Таинственный поезд / Mystery Train (1986) BDRip [720p] скачать через торрент бесплатно
  • Денежный поезд / Money Train (1995) BDRip [H.264 / 1080p] скачать через торрент бесплатно


    • Комментарии (0):

      Информация

      Информация

        Посетители, находящиеся в группе Гости, не могут оставлять комментарии в данной новости.

        ↓ Меню




        ↓ Опрос

        Вы добавили сайт в закладки?
        Да
        Нет


        Популярное