.
Авторизация | Регистрация
bitok.xyz
» » Белы медведи (2015) WEBRip [H.264 / 720-LQ] торрент скачать бесплатно


    Белы медведи (2015) WEBRip [H.264 / 720-LQ] торрент скачать бесплатно

    Дата: 29-11-2019, 05:00 | .torrent скачали: 0

    Белы медведи (2015) WEBRip [H.264 / 720-LQ]Производство: Россия, Союзмультфильм
    Жанр: Рисованная анимация, Короткометражный
    Режиссер: Роза Гиматдинова, Татьяна Киселёва

    Описание

    История про хитроумного северного мужичка-промышленника, который, оказавшись на пустынном острове, где водятся только белые медведи, сумел не только выжить, но и извлечь большую выгоду.

    Возраст: 6+ (зрителям, достигшим 6 лет)
    Релиз от: NNM-club, РГ Всё лучшее Детям
    Продолжительность: 00: 13: 30
    Качество видео: WEBRip
    Субтитры: отсутствуют
    Видео: H.264/AVC, 1280x720, 1574 kbps
    Аудио: AAC LC, 2 ch, 128 kbps
    Общее
    Уникальный идентификатор : 255254173302904491057350049303987475369 (0xC0082A6369253862852013A27C2FD3A9)
    Полное имя : G: Белы медведи (2015).mkv
    Формат : Matroska
    Версия формата : Version 4/Version 2
    Размер файла : 164 Мбайт
    Продолжительность : 13 м. 30 с.
    Общий поток : 1702 Кбит/сек
    Дата кодирования : UTC 2019-11-28 16: 44: 02
    Программа кодирования : mkvmerge v24.0.0 (\'Beyond The Pale\') 32-bit
    Библиотека кодирования : libebml v1.3.6 + libmatroska v1.4.9
    Видео
    Идентификатор : 1
    Формат : AVC
    Формат/Информация : Advanced Video Codec
    Профиль формата : Main@L3.1
    Параметр CABAC формата : Да
    Параметр ReFrames формата : 3 кадра
    Идентификатор кодека : V_MPEG4/ISO/AVC
    Продолжительность : 13 м. 30 с.
    Битрейт : 1574 Кбит/сек
    Ширина : 1280 пикселей
    Высота : 720 пикселей
    Соотношение сторон : 16: 9
    Режим частоты кадров : Постоянный
    Частота кадров : 25, 000 кадров/сек
    Цветовое пространство : YUV
    Субдискретизация насыщенности : 4: 2: 0
    Битовая глубина : 8 бит
    Тип развёртки : Прогрессивная
    Бит/(Пиксели*Кадры) : 0.068
    Размер потока : 152 Мбайт (92%)
    Заголовок : Белы медведи for NNM-club
    Default : Да
    Forced : Нет
    Цветовой диапазон : Limited
    Основные цвета : BT.709
    Характеристики трансфера : BT.709
    Коэффициенты матрицы : BT.709
    Аудио
    Идентификатор : 2
    Формат : AAC
    Формат/Информация : Advanced Audio Codec
    Профиль формата : LC
    Идентификатор кодека : A_AAC
    Продолжительность : 13 м. 30 с.
    Битрейт : 126 Кбит/сек
    Каналы : 2 канала
    Расположение каналов : Front: L R
    Частота : 44, 1 КГц
    Частота кадров : 43, 066 кадра/сек (1024 spf)
    Метод сжатия : С потерями
    Размер потока : 12, 1 Мбайт (7%)
    Заголовок : русский
    Язык : Russian
    Default : Да
    Forced : Нет

    Скриншоты для ознакомления



    Все одноименные релизы в Клубе
    Время раздачи: с 11: 00 до 01: 00 (до появления первых 3-5 скачавших)

    Онлайн видео Белы медведи (2015) WEBRip [H.264



    Белы медведи (2015) WEBRip [H.264/720-LQ]
    Рейтинг →
     (голосов: 1, оценка 4/5, голосовать можно 1 раз )

    Другие торренты по теме:



      Комментарии (0):

      Информация

      Информация

        Посетители, находящиеся в группе Гости, не могут оставлять комментарии в данной новости.

        ↓ Меню




        ↓ Опрос

        Вы добавили сайт в закладки?
        Да
        Нет


        Популярное

        Футурама / Futurama (1999-2013) DVDRip (7 Сезонов, 140 серии) скачать через торрент бесплатно

        (скачиваний: 77)
        Малышарики (2015-2019) WEB-DL [H.264 / 1080p-LQ] (серии 1-154 из 208) [Обновляемая]

        (скачиваний: 67)
        Жила-была царевна (2015-2019) WEB-DLRip [H.264 / 720p-LQ] (сезон 1, серии 1-18 из 26) [Обновляемая]

        (скачиваний: 43)
        Металионы / Metalions (2018-2019) WEB-DLRip [H.264 / 720p-LQ] (сезон 1, серии 1-52 из 52) [Обновляемая]

        (скачиваний: 34)
        Рик и Морти / Rick and Morty (2013) BDRip [H.264 / 1080p] (Сезон 1, серии 1-11 из 11) Сыендук [EN Sub] скачать через торрент бесплатно

        (скачиваний: 34)
        Три кота (2018) WEB-DLRip [H.264 / 720p-LQ] (сезон 3, серии 105-106 из 156)

        (скачиваний: 29)
        В гостях у сказки (сборник 56 фильмов) (1939-2009) DVDRip

        (скачиваний: 29)
        Спокойной ночи, малыши! (2009, 2015) SATRip, TVRip (83 выпусков)

        (скачиваний: 19)
        Рик и Морти / Rick and Morty (2013) BDRip [H.264 / 720p-LQ] (сезон 1, серии 1-11 из 11) Сыендук

        (скачиваний: 18)
        Рик и Морти / Rick and Morty (2015) WEB-DL [H.264 / 1080p] (Сезон 2, серии 1-10 из 10) Сыендук [EN / RU Sub] скачать через торрент бесплатно

        (скачиваний: 17)