.
Авторизация | Регистрация
bitok.xyz
» » Дора и Затерянный город / Dora and the Lost City of Gold (2019) BDRip [H.264] торрент скачать бесплатно


    Дора и Затерянный город / Dora and the Lost City of Gold (2019) BDRip [H.264] торрент скачать бесплатно

    Дата: 29-11-2019, 05:00 | .torrent скачали: 0

    Дора и Затерянный город / Dora and the Lost City of Gold (2019) BDRip [H.264]Производство: США, Мексика, Австралия/Paramount Players, Walden Media, Screen Queensland
    Жанр: Приключения, семейный
    Режиссер: Джеймс Бобин

    Актеры
    Изабела Монер, Эухенио Дербес, Майкл Пенья, Ева Лонгория, Джеффри Уолберг, Николас Кумбе, Мадлен Мэдден, Темуэра Моррисон, Бенисио Дель Торо, Дэнни Трехо, Мэдлин Миранда

    Описание

    Практически все детство Дора провела в джунглях, где работали ее родители-исследователи. Но никакие прежние приключения не могли подготовить девушку к опасностям старшей школы — непониманию, соперничеству, зависти. Вдобавок таинственным образом исчезают родители Доры. Но она не была бы собой, если бы опустила руки. Первая любовь, а также старые и новые друзья вдохновляют смелую девушку отправиться на поиски родных. На пути к цели их ждет масса испытаний, а также леденящая кровь загадка потерянной цивилизации…

    Возраст: 6+ (зрителям, достигшим 6 лет)
    Рейтинг MPAA: PG (рекомендуется присутствие родителей)
    Дата мировой премьеры: 2 августа 2019
    Дата российской премьеры: 8 августа 2019, Централ Партнершип
    Продолжительность: 01: 42: 27
    Качество видео: BDRip
    Перевод: Дублированный (iTunes)
    Субтитры: Русские (Forced, full), украинские (Forced, full), английские
    Видео: AVC/H.264, 1024x576, ~2643 Kbps
    Аудио 1: AC3, 6 ch, 384 Kbps - Русский
    Аудио 2: AC3, 6 ch, 384 Kbps - Украинский
    General
    Unique ID : 224083031389508481990467557775572443595 (0xA894D26FC918F44F98A52A8E384FA1CB)
    Complete name : C: ЗагрузкиDora.and.the.Lost.City.of.Gold.2019.BDRip.AVC.mkv
    Format : Matroska
    Format version : Version 2
    File size : 2.44 GiB
    Duration : 1 h 42 min
    Overall bit rate : 3 413 kb/s
    Movie name : Dora and the Lost City of Gold (2019) from ExKinoRay
    Encoded date : UTC 2019-11-27 21: 36: 26
    Writing application : mkvmerge v5.6.0 (\'Kenya Kane\') built on May 27 2012 16: 44: 04
    Writing library : libebml v1.2.3 + libmatroska v1.3.0
    Video
    ID : 1
    Format : AVC
    Format/Info : Advanced Video Codec
    Format profile : High@L4.1
    Format settings : CABAC/11 Ref Frames
    Format settings, CABAC : Yes
    Format settings, Reference : 11 frames
    Codec ID : V_MPEG4/ISO/AVC
    Duration : 1 h 42 min
    Bit rate : 2 643 kb/s
    Width : 1 024 pixels
    Height : 576 pixels
    Display aspect ratio : 16: 9
    Frame rate mode : Constant
    Frame rate : 23.976 (23976/1000) FPS
    Color space : YUV
    Chroma subsampling : 4: 2: 0
    Bit depth : 8 bits
    Scan type : Progressive
    Bits/(Pixel*Frame) : 0.187
    Stream size : 1.84 GiB (76%)
    Title : Enigma
    Writing library : x264 core 152 r2851 ba24899
    Encoding settings : cabac=1/ref=11/deblock=1: -2: -2/analyse=0x3: 0x113/me=umh/subme=10/psy=1/psy_rd=1.00: 0.05/mixed_ref=1/me_range=32/chroma_me=1/trellis=2/8x8dct=1/cqm=0/deadzone=21, 11/fast_pskip=0/chroma_qp_offset=-3/threads=12/lookahead_threads=3/sliced_threads=0/nr=0/decimate=0/interlaced=0/bluray_compat=0/constrained_intra=0/bframes=10/b_pyramid=2/b_adapt=2/b_bias=0/direct=3/weightb=1/open_gop=0/weightp=2/keyint=240/keyint_min=23/scenecut=40/intra_refresh=0/rc=2pass/mbtree=0/bitrate=2643/ratetol=1.0/qcomp=0.60/qpmin=0/qpmax=51/qpstep=4/cplxblur=20.0/qblur=0.5/ip_ratio=1.40/pb_ratio=1.30/aq=1: 1.00
    Language : English
    Default : Yes
    Forced : No
    Color range : Limited
    Color primaries : BT.709
    Transfer characteristics : BT.709
    Matrix coefficients : BT.709
    Audio #1
    ID : 2
    Format : AC-3
    Format/Info : Audio Coding 3
    Commercial name : Dolby Digital
    Codec ID : A_AC3
    Duration : 1 h 42 min
    Bit rate mode : Constant
    Bit rate : 384 kb/s
    Channel(s) : 6 channels
    Channel layout : L R C LFE Ls Rs
    Sampling rate : 48.0 kHz
    Frame rate : 31.250 FPS (1536 SPF)
    Compression mode : Lossy
    Stream size : 281 MiB (11%)
    Title : iTunes
    Language : Russian
    Service kind : Complete Main
    Default : Yes
    Forced : No
    Audio #2
    ID : 3
    Format : AC-3
    Format/Info : Audio Coding 3
    Commercial name : Dolby Digital
    Codec ID : A_AC3
    Duration : 1 h 42 min
    Bit rate mode : Constant
    Bit rate : 384 kb/s
    Channel(s) : 6 channels
    Channel layout : L R C LFE Ls Rs
    Sampling rate : 48.0 kHz
    Frame rate : 31.250 FPS (1536 SPF)
    Compression mode : Lossy
    Stream size : 281 MiB (11%)
    Title : iTunes
    Language : Ukrainian
    Service kind : Complete Main
    Default : No
    Forced : No
    Text #1
    ID : 4
    Format : UTF-8
    Codec ID : S_TEXT/UTF8
    Codec ID/Info : UTF-8 Plain Text
    Title : Forced
    Language : Russian
    Default : Yes
    Forced : No
    Text #2
    ID : 5
    Format : UTF-8
    Codec ID : S_TEXT/UTF8
    Codec ID/Info : UTF-8 Plain Text
    Title : Full
    Language : Russian
    Default : No
    Forced : No
    Text #3
    ID : 6
    Format : UTF-8
    Codec ID : S_TEXT/UTF8
    Codec ID/Info : UTF-8 Plain Text
    Title : Forced
    Language : Ukrainian
    Default : No
    Forced : No
    Text #4
    ID : 7
    Format : UTF-8
    Codec ID : S_TEXT/UTF8
    Codec ID/Info : UTF-8 Plain Text
    Title : Full
    Language : Ukrainian
    Default : No
    Forced : No
    Text #5
    ID : 8
    Format : UTF-8
    Codec ID : S_TEXT/UTF8
    Codec ID/Info : UTF-8 Plain Text
    Title : Full
    Language : English
    Default : No
    Forced : No
    Menu
    00: 00: 00.000 : en: Chapter 01
    00: 04: 52.417 : en: Chapter 02
    00: 09: 49.088 : en: Chapter 03
    00: 15: 35.643 : en: Chapter 04
    00: 20: 26.767 : en: Chapter 05
    00: 25: 47.837 : en: Chapter 06
    00: 35: 15.780 : en: Chapter 07
    00: 42: 53.737 : en: Chapter 08
    00: 47: 13.664 : en: Chapter 09
    00: 52: 57.883 : en: Chapter 10
    00: 55: 41.463 : en: Chapter 11
    01: 01: 02.659 : en: Chapter 12
    01: 06: 11.384 : en: Chapter 13
    01: 10: 23.135 : en: Chapter 14
    01: 13: 51.885 : en: Chapter 15
    01: 18: 26.326 : en: Chapter 16
    01: 22: 39.496 : en: Chapter 17
    01: 32: 57.947 : en: Chapter 18
    01: 38: 30.404 : en: Chapter 19

    Скриншоты для ознакомления



    Все одноименные релизы в Клубе
    Время раздачи: 24/7 (до появления первых 3-5 скачавших)

    Онлайн видео Дора и Затерянный город



    Дора и Затерянный город/Dora and the Lost City of Gold (2019) BDRip [H.264]
    Рейтинг →
     (голосов: 1, оценка 3/5, голосовать можно 1 раз )

    Другие торренты по теме:

  • Дора и Затерянный город / Dora and the Lost City of Gold (2019) WEB-DLRip [H.264 / 1080p-LQ] [Line, AD]
  • Дора и Затерянный город / Dora and the Lost City of Gold (2019) BDRip [H.264 / 1080p]
  • Дора и Затерянный город / Dora and the Lost City of Gold (2019) BDRip [H.264 / 720p]
  • Дора и Затерянный город / Dora and the Lost City of Gold (2019) BDRemux [H.264 / 1080p]


    • Комментарии (0):

      Информация

      Информация

        Посетители, находящиеся в группе Гости, не могут оставлять комментарии в данной новости.

        ↓ Меню




        ↓ Опрос

        Вы добавили сайт в закладки?
        Да
        Нет


        Популярное