.
Авторизация | Регистрация
bitok.xyz
» » Эверест / Abominable (2019) WEB-DL [H.264 / 720p] торрент скачать бесплатно


    Эверест / Abominable (2019) WEB-DL [H.264 / 720p] торрент скачать бесплатно

    Дата: 29-11-2019, 05:00 | .torrent скачали: 0

    Эверест / Abominable (2019) WEB-DL [H.264 / 720p]Производство: Китай, США, DreamWorks Animation, Pearl Studio
    Жанр: Мультфильм, Фэнтези, Комедия, Приключения, Семейный
    Режиссер: Джилл Калтон, Тодд Вилдерман
    Продюсер: Сюзанн Бёрги, Пейлин Чоу, Дейв Полски
    Персонажи: Хлоя Беннет, Альберт Цай, Тензинг Норгай Трэйнор, Джозеф Иццо, Эдди Иззард, Сара Полсон, Цай Чинь, Мишель Вонг, Рич Дитль, Джеймс Хонг

    Описание

    Путешествие на самую высокую точку мира? Что может быть круче! Так решает Лу, когда случайно находит огромное, но очень милое чудовище посреди шумного мегаполиса. Пусть их преследуют ученые из сверхсекретной лаборатории, зато её новый друг умеет смешить и творить чудеса. Лу уверена, что поможет дружелюбному йети вернуться домой — на Эверест.

    Возраст: 6+ (зрителям, достигшим 6 лет)
    Рейтинг MPAA: PG (рекомендуется присутствие родителей)
    Дата мировой премьеры: 7 сентября 2019
    Дата российской премьеры: 3 октября 2019, UPI
    Продолжительность: 01: 37: 13
    Качество видео: WEB-DL
    Перевод: Дублированный (iTunes)
    Субтитры: Русские (форсированные, вшитые)
    Видео: AVC/H.264, 1280x688, 4014 kbps
    Аудио 1: АС3, 6 ch, 384 Kbps, Русский (DUB iTunes)
    Аудио 2: АС3, 6 ch, 384 Kbps, Английский
    Общее
    Уникальный идентификатор : 20390666453417161028788308406813769383 (0xF5719798B4614613FD5B4295C26BEA7)
    Полное имя : D: MULTAbominable.2019.WEB-DL.720p.mkv
    Формат : Matroska
    Версия формата : Version 4
    Размер файла : 3, 25 Гбайт
    Продолжительность : 1 ч. 37 м.
    Общий поток : 4785 Кбит/сек
    Название фильма : Abominable 2019 from селезень
    Дата кодирования : UTC 2019-11-27 20: 32: 01
    Программа кодирования : mkvmerge v40.0.0 (\'Old Town Road + Pony\') 64-bit
    Библиотека кодирования : libebml v1.3.9 + libmatroska v1.5.2
    Обложка : Yes
    Attachments : cover.jpg/cover.jpg
    Видео
    Идентификатор : 1
    Формат : AVC
    Формат/Информация : Advanced Video Codec
    Профиль формата : High@L3.1
    Настройки формата : 2 Ref Frames
    Параметр CABAC формата : Нет
    Параметр RefFrames формата : 2 кадра
    Идентификатор кодека : V_MPEG4/ISO/AVC
    Продолжительность : 1 ч. 37 м.
    Битрейт : 4014 Кбит/сек
    Ширина : 1280 пикселей
    Высота : 688 пикселей
    Соотношение сторон : 1, 85: 1
    Режим частоты кадров : Постоянный
    Частота кадров : 23, 976 (23976/1000) кадра/сек
    Цветовое пространство : YUV
    Субдискретизация насыщенности : 4: 2: 0
    Битовая глубина : 8 бит
    Тип развёртки : Прогрессивная
    Бит/(Пиксели*Кадры) : 0.190
    Размер потока : 2, 73 Гбайт (84%)
    Язык : English
    Default : Да
    Forced : Нет
    Цветовой диапазон : Limited
    Основные цвета : BT.709
    Характеристики трансфера : BT.709
    Коэффициенты матрицы : BT.709
    Аудио #1
    Идентификатор : 2
    Формат : AC-3
    Формат/Информация : Audio Coding 3
    Коммерческое название : Dolby Digital
    Идентификатор кодека : A_AC3
    Продолжительность : 1 ч. 37 м.
    Вид битрейта : Постоянный
    Битрейт : 384 Кбит/сек
    Каналы : 6 каналов
    ChannelLayout : L R C LFE Ls Rs
    Частота : 48, 0 КГц
    Частота кадров : 31, 250 кадров/сек (1536 SPF)
    Метод сжатия : С потерями
    Размер потока : 267 Мбайт (8%)
    Заголовок : iTunes
    Язык : Russian
    ServiceKind/String : Complete Main
    Default : Да
    Forced : Да
    Аудио #2
    Идентификатор : 3
    Формат : AC-3
    Формат/Информация : Audio Coding 3
    Коммерческое название : Dolby Digital
    Идентификатор кодека : A_AC3
    Продолжительность : 1 ч. 37 м.
    Вид битрейта : Постоянный
    Битрейт : 384 Кбит/сек
    Каналы : 6 каналов
    ChannelLayout : L R C LFE Ls Rs
    Частота : 48, 0 КГц
    Частота кадров : 31, 250 кадров/сек (1536 SPF)
    Метод сжатия : С потерями
    Задержка видео : 22 мс.
    Размер потока : 267 Мбайт (8%)
    Заголовок : Original
    Язык : English
    ServiceKind/String : Complete Main
    Default : Нет
    Forced : Нет
    Меню
    00: 00: 00.000 : en: 1
    00: 04: 12.836 : en: 2
    00: 09: 11.885 : en: 3
    00: 13: 43.239 : en: 4
    00: 16: 14.598 : en: 5
    00: 21: 35.752 : en: 6
    00: 25: 03.459 : en: 7
    00: 29: 31.435 : en: 8
    00: 33: 58.452 : en: 9
    00: 36: 44.784 : en: 10
    00: 41: 54.009 : en: 11
    00: 46: 31.703 : en: 12
    00: 50: 43.329 : en: 13
    00: 56: 32.553 : en: 14
    01: 01: 41.528 : en: 15
    01: 06: 34.195 : en: 16
    01: 11: 45.422 : en: 17
    01: 15: 27.352 : en: 18
    01: 20: 42.542 : en: 19
    01: 26: 45.404 : en: 20

    Скриншоты для ознакомления



    Все одноименные релизы в Клубе
    Время раздачи: c 5 до 19 мск (до появления первых 3-5 скачавших)

    Онлайн видео Эверест



    Эверест/Abominable (2019) WEB-DL [H.264/720p]
    Рейтинг →
     (голосов: 1, оценка 3/5, голосовать можно 1 раз )

    Другие торренты по теме:

  • Эверест / Abominable (2019) BDRip [H.264]
  • Эверест / Abominable (2019) WEB-DL [H.264 / 1080p-LQ]
  • Эверест / Abominable (2019) WEB-DL [1080p] ATV
  • Эверест / Abominable (2019) WEB-DLRip [H.264]
  • Эверест / Abominable (2019) UHD BDRemux [H.265 / 2160p] [4K, HDR, 10-bit]
  • Эверест / Abominable (2019) BDRip [H.264 / 1080p]
  • Эверест / Abominable (2019) BDRemux [H.264 / 1080p]


    • Комментарии (0):

      Информация

      Информация

        Посетители, находящиеся в группе Гости, не могут оставлять комментарии в данной новости.

        ↓ Меню




        ↓ Опрос

        Вы добавили сайт в закладки?
        Да
        Нет


        Популярное

        Футурама / Futurama (1999-2013) DVDRip (7 Сезонов, 140 серии) скачать через торрент бесплатно

        (скачиваний: 70)
        Малышарики (2015-2019) WEB-DL [H.264 / 1080p-LQ] (серии 1-154 из 208) [Обновляемая]

        (скачиваний: 57)
        Жила-была царевна (2015-2019) WEB-DLRip [H.264 / 720p-LQ] (сезон 1, серии 1-18 из 26) [Обновляемая]

        (скачиваний: 34)
        Металионы / Metalions (2018-2019) WEB-DLRip [H.264 / 720p-LQ] (сезон 1, серии 1-52 из 52) [Обновляемая]

        (скачиваний: 32)
        В гостях у сказки (сборник 56 фильмов) (1939-2009) DVDRip

        (скачиваний: 26)
        Три кота (2018) WEB-DLRip [H.264 / 720p-LQ] (сезон 3, серии 105-106 из 156)

        (скачиваний: 25)
        Спокойной ночи, малыши! (2009, 2015) SATRip, TVRip (83 выпусков)

        (скачиваний: 19)
        Рик и Морти / Rick and Morty (2013) BDRip [H.264 / 1080p] (Сезон 1, серии 1-11 из 11) Сыендук [EN Sub] скачать через торрент бесплатно

        (скачиваний: 18)
        Роботы-поезда / Robot Trains (2017) WEB-DL [H.264 / 720p-LQ] (1 сезон, 32 серий из 32)

        (скачиваний: 13)
        Fate / stay night Movie: Heavens Feel - II. Lost Butterfly / Судьба: Ночь схватки. Прикосновение Небес - II. Потерявшаяся бабочка [2019, MV] BDRip 1080p Rus

        (скачиваний: 12)