.
Авторизация | Регистрация
bitok.xyz
» » Сундук (1986) DVDRip торрент скачать бесплатно


    Сундук (1986) DVDRip торрент скачать бесплатно

    Дата: 30-11-2019, 05:00 | .torrent скачали: 0

    Сундук (1986) DVDRipПроизводство: СССР, ТО Экран
    Жанр: Кукольный, Рисованная анимация, Короткометражный, Музыкальный
    Режиссер: Юлиан Калишер

    Описание

    О том, как иногда искусственно усложняется решение самой простой проблемы.

    Возраст: 0+ (для любой зрительской аудитории)
    Продолжительность: 00: 08: 15
    Качество видео: DVDRip
    Субтитры: отсутствуют
    Видео: DivX 5, 704х560, ~1105 Kbps
    Аудио: MP3, 2 ch, 128 Kbps
    Общее
    Полное имя : D: NNM-ClubСундук.avi
    Формат : AVI
    Формат/Информация : Audio Video Interleave
    Размер файла : 73, 2 Мбайт
    Продолжительность : 8 м. 15 с.
    Режим общего битрейта : Переменный
    Общий поток : 1240 Кбит/сек
    Видео
    Идентификатор : 0
    Формат : MPEG-4 Visual
    Настройки формата : BVOP1
    Параметр BVOP формата : 1
    Параметр QPel формата : Нет
    Параметр GMC формата : Без точки перехода
    Параметр матрицы формата : Default (H.263)
    Режим смешивания : Сжатый битовый поток
    Идентификатор кодека : DX50
    Идентификатор кодека/Подсказка : DivX 5
    Продолжительность : 8 м. 15 с.
    Битрейт : 1105 Кбит/сек
    Номинальный битрейт : 4000 Кбит/сек
    Ширина : 704 пикселя
    Высота : 560 пикселей
    Соотношение сторон : 5: 4
    Частота кадров : 25, 000 кадров/сек
    Цветовое пространство : YUV
    Субдискретизация насыщенности : 4: 2: 0
    Битовая глубина : 8 бит
    Тип развёртки : Прогрессивная
    Метод сжатия : С потерями
    Бит/(Пиксели*Кадры) : 0.112
    Размер потока : 65, 2 Мбайт (89%)
    Заголовок : Video
    Библиотека кодирования : DivX 5.2.0 (DrDivX 105) (UTC 2004-07-17)
    Аудио
    Идентификатор : 1
    Формат : MPEG Audio
    Версия формата : Version 1
    Профиль формата : Layer 3
    Настройки формата : Joint stereo/MS Stereo
    Идентификатор кодека : 55
    Идентификатор кодека/Подсказка : MP3
    Продолжительность : 8 м. 15 с.
    Вид битрейта : Переменный
    Битрейт : 128 Кбит/сек
    Каналы : 2 канала
    Частота : 48, 0 КГц
    Метод сжатия : С потерями
    Размер потока : 7, 16 Мбайт (10%)
    Выравнивание : Соединение по промежуткам
    Продолжительность промежутка : 24 мс. (0, 60 видеокадр)
    Время предзагрузки промежутка : 426 мс.
    Заголовок : Audio

    Скриншоты для ознакомления



    Все одноименные релизы в Клубе
    Время раздачи: Круглосуточно (по возможности) до 3 сидеров. Реставрация от: master-13

    Онлайн видео Кэтрин Эпплгейт



    Сундук (1986) DVDRip
    Рейтинг →
     (голосов: 1, оценка 3/5, голосовать можно 1 раз )

    Другие торренты по теме:

  • Сундук со сказками 1.0 / 1 / 2 [Ru] скачать через торрент бесплатно
  • Обои - Откроем бабушкин сундук. 2880x1620 - 100 шт [JPG] скачать через торрент бесплатно
  • Пираты Карибского моря: Сундук мертвеца / Pirates of the Caribbean: Dead Mans Chest (2006) BDRip [H.264 / 1080p-LQ]
  • В.Гауф, П.Ершов, М.Салтыков-Щедрин, А.Пушкин и др. | Сундук сказок (2008) [m4b|AAC]
  • Пираты Карибского моря: Сундук мертвеца / Pirates of the Caribbean: Dead Mans Chest (2006) BDRip [H.265 / 1080p-LQ]
  • Пираты Карибского моря: Сундук мертвеца / Pirates of the Caribbean: Dead Mans Chest (2006) WEB-DL [H.264 / 1080p-LQ] [Open Matte]
  • Пираты Карибского моря: Сундук мертвеца / Pirates of the Caribbean: Dead Mans Chest (2006) HDRip [H.264] [Hand Made Extended Cut]
  • Макс Фрай | Сундук мертвеца (2017) [FB2]


    • Комментарии (0):

      Информация

      Информация

        Посетители, находящиеся в группе Гости, не могут оставлять комментарии в данной новости.

        ↓ Меню




        ↓ Опрос

        Вы добавили сайт в закладки?
        Да
        Нет


        Популярное