.
Авторизация | Регистрация
bitok.xyz
» » Новогодний ветер (1975) DVDRip торрент скачать бесплатно


    Новогодний ветер (1975) DVDRip торрент скачать бесплатно

    Дата: 30-11-2019, 05:00 | .torrent скачали: 0

    Новогодний ветер (1975) DVDRipПроизводство: СССР, Союзмультфильм
    Жанр: Детский, Кукольный, Сказка, Короткометражный
    Режиссер: Михаил Каменецкий, Вячеслав Шилобреев

    Описание

    Самый младший братец-Морозец и маленький медвежонок случайно создают новогодний ветер, разносящий по свету игрушки и подарки.

    Возраст: 0+ (для любой зрительской аудитории)
    Продолжительность: 00: 16: 00
    Качество видео: DVDRip
    Субтитры: отсутствуют
    Видео: DivX 5, 640x480, 2 301 Kbps
    Аудио: MP3, 2 ch, 256 Kbps
    Общее
    Полное имя : G: Novogodnij veter.avi
    Формат : AVI
    Формат/Информация : Audio Video Interleave
    Размер файла : 294 Мбайт
    Продолжительность : 16 м. 0 с.
    Общий поток : 2567 Кбит/сек
    Программа кодирования : VirtualDubMod 1.5.10.2 (build 2542/release)
    Библиотека кодирования : VirtualDub build 32661/release
    Видео
    Идентификатор : 0
    Формат : MPEG-4 Visual
    Параметр BVOP формата : Да
    Параметр QPel формата : Нет
    Параметр GMC формата : Без точки перехода
    Параметр матрицы формата : Default (H.263)
    Идентификатор кодека : DX50
    Идентификатор кодека/Подсказка : DivX 5
    Продолжительность : 16 м. 0 с.
    Битрейт : 2301 Кбит/сек
    Номинальный битрейт : 4854 Кбит/сек
    Ширина : 640 пикселей
    Высота : 480 пикселей
    Соотношение сторон : 4: 3
    Частота кадров : 25, 000 кадров/сек
    Цветовое пространство : YUV
    Субдискретизация насыщенности : 4: 2: 0
    Битовая глубина : 8 бит
    Тип развёртки : Прогрессивная
    Метод сжатия : С потерями
    Бит/(Пиксели*Кадры) : 0.300
    Размер потока : 263 Мбайт (90%)
    Библиотека кодирования : DivX 6.8.5 (UTC 2009-08-20)
    Аудио
    Идентификатор : 1
    Формат : MPEG Audio
    Версия формата : Version 1
    Профиль формата : Layer 3
    Режим : Joint stereo
    Идентификатор кодека : 55
    Идентификатор кодека/Подсказка : MP3
    Продолжительность : 16 м. 0 с.
    Вид битрейта : Постоянный
    Битрейт : 256 Кбит/сек
    Каналы : 2 канала
    Частота : 48, 0 КГц
    Метод сжатия : С потерями
    Размер потока : 29, 3 Мбайт (10%)
    Выравнивание : Разделение по промежуткам
    Продолжительность промежутка : 40 мс. (1, 00 видеокадр)
    Время предзагрузки промежутка : 500 мс.
    Библиотека кодирования : LAME3.98.2

    Скриншоты для ознакомления



    Все одноименные релизы в Клубе
    Время раздачи: с 11: 00 до 01: 00 (до появления первых 3-5 скачавших)

    Онлайн видео Сария Ага Маммад Маммадова



    Новогодний ветер (1975) DVDRip
    Рейтинг →
     (голосов: 1, оценка 3/5, голосовать можно 1 раз )

    Другие торренты по теме:

  • Шаблоны - Новогодний сюрприз [JPEG,PNG] скачать через торрент бесплатно
  • Подшивка журналов | Библиотека журнала «Приготовь». Новогодний стол № 1-6 (2014) [PDF] скачать через торрент бесплатно
  • VA - Новогодний Хит (2014) [MP3|24 -256 кб / с]<Pop>
  • VA - Новогодний Блатнячок (2014) [MP3|256 кб / с]<Шансон>
  • Проект ProShow Producer - Новогодний альбом 2015 [PSH] скачать через торрент бесплатно
  • VA - Новогодний выпуск Шансона. Версия 2 (2014) [MP3|256 кб / с]<Шансон> скачать через торрент бесплатно
  • Вечерний Ургант. Сезон №6. Выпуск №79. Новогодний выпуск (2014.12.30) SATRip скачать через торрент бесплатно
  • Не спать! Выпуск №35. Новогодний выпуск (2014.12.30) SATRip скачать через торрент бесплатно


    • Комментарии (0):

      Информация

      Информация

        Посетители, находящиеся в группе Гости, не могут оставлять комментарии в данной новости.

        ↓ Меню




        ↓ Опрос

        Вы добавили сайт в закладки?
        Да
        Нет


        Популярное

        Футурама / Futurama (1999-2013) DVDRip (7 Сезонов, 140 серии) скачать через торрент бесплатно

        (скачиваний: 77)
        Малышарики (2015-2019) WEB-DL [H.264 / 1080p-LQ] (серии 1-154 из 208) [Обновляемая]

        (скачиваний: 67)
        Жила-была царевна (2015-2019) WEB-DLRip [H.264 / 720p-LQ] (сезон 1, серии 1-18 из 26) [Обновляемая]

        (скачиваний: 43)
        Металионы / Metalions (2018-2019) WEB-DLRip [H.264 / 720p-LQ] (сезон 1, серии 1-52 из 52) [Обновляемая]

        (скачиваний: 34)
        Рик и Морти / Rick and Morty (2013) BDRip [H.264 / 1080p] (Сезон 1, серии 1-11 из 11) Сыендук [EN Sub] скачать через торрент бесплатно

        (скачиваний: 34)
        Три кота (2018) WEB-DLRip [H.264 / 720p-LQ] (сезон 3, серии 105-106 из 156)

        (скачиваний: 29)
        В гостях у сказки (сборник 56 фильмов) (1939-2009) DVDRip

        (скачиваний: 29)
        Спокойной ночи, малыши! (2009, 2015) SATRip, TVRip (83 выпусков)

        (скачиваний: 19)
        Рик и Морти / Rick and Morty (2013) BDRip [H.264 / 720p-LQ] (сезон 1, серии 1-11 из 11) Сыендук

        (скачиваний: 18)
        Рик и Морти / Rick and Morty (2015) WEB-DL [H.264 / 1080p] (Сезон 2, серии 1-10 из 10) Сыендук [EN / RU Sub] скачать через торрент бесплатно

        (скачиваний: 17)