.
Авторизация | Регистрация
bitok.xyz
» » Школа снеговиков: Дед Мороз из Дедморозовки. Хоккей в Дедморозовке (2009, 2011) WEBRip торрент скачать бесплатно


    Школа снеговиков: Дед Мороз из Дедморозовки. Хоккей в Дедморозовке (2009, 2011) WEBRip торрент скачать бесплатно

    Дата: 30-11-2019, 05:00 | .torrent скачали: 0

    Школа снеговиков: Дед Мороз из Дедморозовки. Хоккей в Дедморозовке (2009, 2011) WEBRipПроизводство: Россия, Союзмультфильм
    Жанр: Рисованная анимация, Детский, Сказка, Короткометражный
    Режиссер: Александр Маркелов

    Описание

    Замечательные добрые мультфильмы, созданные по одноименной повести известного детского писателя Андрея Усачева.
    Далеко на Севере, где-то в Архангельской или Вологодской области, есть невидимая деревня Дедморозовка. Невидимая, потому что накрыта она волшебным невидимым покрывалом. В этой деревне и проводит большую часть времени Дед Мороз и его внучка Снегурочка. А еще там живут помощники Деда Мороза снеговики и снеговички. На самом крайнем Севере, чудес и тайн полна, среди лесов затеряна, деревня есть одна…

    Возраст: этот продукт не был классифицирован
    Продолжительность: 00: 13: 14 + 00: 13: 32
    Качество видео: WEBRip
    Субтитры: отсутствуют
    Видео: XviD, 576x432, ~1 270 Kbps
    Аудио: AC-3, 1 ch, 96.0 Kbps
    Общее
    Полное имя : G: Shkola_snegovikov I IIShkola_Snegovikov_2_Xokkeii_v_Dedmorozovke_2010.avi
    Формат : AVI
    Формат/Информация : Audio Video Interleave
    Размер файла : 133 Мбайт
    Продолжительность : 13 м. 31 с.
    Общий поток : 1375 Кбит/сек
    Программа кодирования : VirtualDubMod 1.5.10.2 (build 2542/release)
    Библиотека кодирования : VirtualDubMod build 2542/release
    Видео
    Идентификатор : 0
    Формат : MPEG-4 Visual
    Профиль формата : Advanced Simple@L5
    Параметр BVOP формата : 2
    Параметр QPel формата : Нет
    Параметр GMC формата : Без точки перехода
    Параметр матрицы формата : Выборочная
    Режим смешивания : Сжатый битовый поток
    Идентификатор кодека : XVID
    Идентификатор кодека/Подсказка : XviD
    Продолжительность : 13 м. 31 с.
    Битрейт : 1270 Кбит/сек
    Ширина : 576 пикселей
    Высота : 432 пикселя
    Соотношение сторон : 4: 3
    Частота кадров : 25, 000 кадров/сек
    Цветовое пространство : YUV
    Субдискретизация насыщенности : 4: 2: 0
    Битовая глубина : 8 бит
    Тип развёртки : Прогрессивная
    Метод сжатия : С потерями
    Бит/(Пиксели*Кадры) : 0.204
    Размер потока : 123 Мбайт (92%)
    Библиотека кодирования : XviD 64
    Аудио
    Идентификатор : 1
    Формат : AC-3
    Формат/Информация : Audio Coding 3
    Расширение режима : CM (complete main)
    Параметр Endianness формата : Big
    Идентификатор кодека : 2000
    Продолжительность : 13 м. 31 с.
    Вид битрейта : Постоянный
    Битрейт : 96, 0 Кбит/сек
    Каналы : 1 канал
    Расположение каналов : Front: C
    Частота : 48, 0 КГц
    Частота кадров : 31, 250 кадров/сек (1536 spf)
    Битовая глубина : 16 бит
    Метод сжатия : С потерями
    Размер потока : 9, 29 Мбайт (7%)
    Выравнивание : Разделение по промежуткам
    Продолжительность промежутка : 40 мс. (1, 00 видеокадр)
    Время предзагрузки промежутка : 500 мс.

    Скриншоты для ознакомления




    Все одноименные релизы в Клубе
    Время раздачи: с 11: 00 до 01: 00 (до появления первых 3-5 скачавших)

    Онлайн видео Сария Ага Маммад Маммадова



    Школа снеговиков: Дед Мороз из Дедморозовки. Хоккей в Дедморозовке (2009, 2011) WEBRip
    Рейтинг →
     (голосов: 1, оценка 5/5, голосовать можно 1 раз )

    Другие торренты по теме:

  • Клуб Винкс. Школа волшебниц / Клуб Вiнкс Школа Чарiвниць / Winx Club (2003) TVRip [H.264] (Сезон 1, серии 2-16, 18-20, 22-26 из 26) [UKR] скачать через торрент бесплатно
  • С.Е. Гаврина и др. | Школа для дошколят. Сборник книг [2002-2006] [DJVU] (21 книга)
  • Школа под прицелом / Nerawareta gakuen (2012) BDRip [576p] iPad
  • Газета | Школа кулинара №20 (октябрь 2014) [PDF]
  • Школа монстров: Монстрические мутации / Monster High: Freaky Fusion (2014) BDRip скачать через торрент бесплатно
  • Шаблоны - Школьная фотокнига "Здравствуй, школа!" [PSD] скачать через торрент бесплатно
  • Необыкновенный мир (Школа выживания в мире насекомых) / Unusual World (2008) HDTVRip [H.264 / 720p] (1-3 серия из 3) скачать через торрент бесплатно
  • Журнал | Школа кулинара №22 (ноябрь 2014) [PDF] скачать через торрент бесплатно


    • Комментарии (0):

      Информация

      Информация

        Посетители, находящиеся в группе Гости, не могут оставлять комментарии в данной новости.

        ↓ Меню




        ↓ Опрос

        Вы добавили сайт в закладки?
        Да
        Нет


        Популярное