.
Авторизация | Регистрация
bitok.xyz
» » Король Лев / The Lion King (2019) BDRip 3D [H.264 / 1080p] [Вертикальная анаморфная стереопара] торрент скачать бесплатно


    Король Лев / The Lion King (2019) BDRip 3D [H.264 / 1080p] [Вертикальная анаморфная стереопара] торрент скачать бесплатно

    Дата: 30-11-2019, 05:00 | .torrent скачали: 0

    Король Лев / The Lion King (2019) BDRip 3D [H.264 / 1080p] [Вертикальная анаморфная стереопара]Производство: США/Walt Disney
    Жанр: Компьютерная анимация, Приключения, Музыкальный, Детский
    Режиссер: Джон Фавро

    Описание

    История об отважном львенке по имени Симба. Знакомые с детства герои взрослеют, влюбляются, познают себя и окружающий мир, совершают ошибки и делают правильный выбор.

    Возраст: 6+ (зрителям, достигшим 6 лет)
    Рейтинг MPAA: PG (рекомендуется присутствие родителей)
    Дата мировой премьеры: 9 июля 2019
    Дата российской премьеры: 18 июля 2019
    Релиз от: Ash61
    Продолжительность: 01: 58: 15
    Качество видео: BDRip
    Перевод: Дублированный
    Субтитры: русские, английские
    Видео: H.264, 1920x1080, ~12.5 mbps
    Аудио 1: AC3, 6 ch, 640 kbps, Русский (BD CEE)
    Аудио 2: AC3, 6 ch, 640 kbps, Английский
    Общее
    Уникальный идентификатор : 191088233841483603905950360523342356637 (0x8FC24152012299A1B213FD0BA8C4209D)
    Полное имя : D: MULTThe_Lion_King_2019_3D.mkv
    Формат : Matroska
    Версия формата : Version 4
    Размер файла : 11, 4 Гбайт
    Продолжительность : 1 ч. 58 м.
    Общий поток : 13, 8 Мбит/сек
    Название фильма : Король Лев/The Lion King (2019) in 3D
    Дата кодирования : UTC 2019-11-29 10: 11: 52
    Программа кодирования : mkvmerge v8.2.0 (\'World of Adventure\') 64bit
    Библиотека кодирования : libebml v1.3.1 + libmatroska v1.4.2
    Видео
    Идентификатор : 1
    Формат : AVC
    Формат/Информация : Advanced Video Codec
    Профиль формата : High@L4.1
    Настройки формата : CABAC/4 Ref Frames
    Параметр CABAC формата : Да
    Параметр RefFrames формата : 4 кадра
    Идентификатор кодека : V_MPEG4/ISO/AVC
    Продолжительность : 1 ч. 58 м.
    Битрейт : 12, 5 Мбит/сек
    Ширина : 1920 пикселей
    Высота : 1080 пикселей
    Соотношение сторон : 16: 9
    Режим частоты кадров : Постоянный
    Частота кадров : 23, 976 (23976/1000) кадра/сек
    Частота кадров в оригинале : 23, 976 (24000/1001) кадра/сек
    Цветовое пространство : YUV
    Субдискретизация насыщенности : 4: 2: 0
    Битовая глубина : 8 бит
    Тип развёртки : Прогрессивная
    Бит/(Пиксели*Кадры) : 0.251
    Размер потока : 10, 3 Гбайт (91%)
    Заголовок : BDRip by Ash61
    Библиотека кодирования : x264 core 146 r2538 121396c
    Настройки программы : cabac=1/ref=4/deblock=1: -3: -3/analyse=0x3: 0x113/me=umh/subme=10/psy=1/psy_rd=1.00: 0.00/mixed_ref=1/me_range=32/chroma_me=1/trellis=2/8x8dct=1/cqm=0/deadzone=21, 11/fast_pskip=0/chroma_qp_offset=-2/threads=12/lookahead_threads=3/sliced_threads=0/nr=0/decimate=0/interlaced=0/bluray_compat=0/constrained_intra=0/bframes=10/b_pyramid=2/b_adapt=2/b_bias=0/direct=3/weightb=1/open_gop=0/weightp=2/keyint=250/keyint_min=23/scenecut=40/intra_refresh=0/rc_lookahead=60/rc=2pass/mbtree=0/bitrate=12500/ratetol=1.0/qcomp=0.70/qpmin=0/qpmax=69/qpstep=4/cplxblur=20.0/qblur=0.5/vbv_maxrate=40000/vbv_bufsize=30000/nal_hrd=none/filler=0/frame-packing=4/ip_ratio=1.40/pb_ratio=1.30/aq=1: 0.70
    Язык : English
    Default : Да
    Forced : Нет
    Аудио #1
    Идентификатор : 2
    Формат : AC-3
    Формат/Информация : Audio Coding 3
    Коммерческое название : Dolby Digital
    Идентификатор кодека : A_AC3
    Продолжительность : 1 ч. 58 м.
    Вид битрейта : Постоянный
    Битрейт : 640 Кбит/сек
    Каналы : 6 каналов
    ChannelLayout : L R C LFE Ls Rs
    Частота : 48, 0 КГц
    Частота кадров : 31, 250 кадров/сек (1536 SPF)
    Метод сжатия : С потерями
    Размер потока : 541 Мбайт (5%)
    Заголовок : Дубляж (BD CEE)
    Язык : Russian
    ServiceKind/String : Complete Main
    Default : Да
    Forced : Нет
    Аудио #2
    Идентификатор : 3
    Формат : AC-3
    Формат/Информация : Audio Coding 3
    Коммерческое название : Dolby Digital
    Идентификатор кодека : A_AC3
    Продолжительность : 1 ч. 58 м.
    Вид битрейта : Постоянный
    Битрейт : 640 Кбит/сек
    Каналы : 6 каналов
    ChannelLayout : L R C LFE Ls Rs
    Частота : 48, 0 КГц
    Частота кадров : 31, 250 кадров/сек (1536 SPF)
    Метод сжатия : С потерями
    Размер потока : 541 Мбайт (5%)
    Заголовок : Original
    Язык : English
    ServiceKind/String : Complete Main
    Default : Нет
    Forced : Нет
    Текст #1
    Идентификатор : 4
    Формат : UTF-8
    Идентификатор кодека : S_TEXT/UTF8
    Идентификатор кодека/Информация : UTF-8 Plain Text
    Продолжительность : 1 ч. 43 м.
    Битрейт : 0 бит/сек
    ElementCount : 2
    Размер потока : 68, 0 байт (0%)
    Заголовок : Форсированные
    Язык : Russian
    Default : Да
    Forced : Нет
    Текст #2
    Идентификатор : 5
    Формат : UTF-8
    Идентификатор кодека : S_TEXT/UTF8
    Идентификатор кодека/Информация : UTF-8 Plain Text
    Продолжительность : 1 ч. 55 м.
    Битрейт : 68 бит/сек
    ElementCount : 1371
    Размер потока : 58, 1 Кбайт (0%)
    Заголовок : Полные
    Язык : Russian
    Default : Нет
    Forced : Нет
    Текст #3
    Идентификатор : 6
    Формат : UTF-8
    Идентификатор кодека : S_TEXT/UTF8
    Идентификатор кодека/Информация : UTF-8 Plain Text
    Продолжительность : 1 ч. 47 м.
    Битрейт : 89 бит/сек
    ElementCount : 1642
    Размер потока : 70, 4 Кбайт (0%)
    Заголовок : SDH
    Язык : Russian
    Default : Нет
    Forced : Нет
    Текст #4
    Идентификатор : 7
    Формат : UTF-8
    Идентификатор кодека : S_TEXT/UTF8
    Идентификатор кодека/Информация : UTF-8 Plain Text
    Продолжительность : 1 ч. 46 м.
    Битрейт : 50 бит/сек
    ElementCount : 1369
    Размер потока : 39, 1 Кбайт (0%)
    Заголовок : Full
    Язык : English
    Default : Нет
    Forced : Нет
    Текст #5
    Идентификатор : 8
    Формат : UTF-8
    Идентификатор кодека : S_TEXT/UTF8
    Идентификатор кодека/Информация : UTF-8 Plain Text
    Продолжительность : 1 ч. 52 м.
    Битрейт : 56 бит/сек
    ElementCount : 1739
    Размер потока : 46, 5 Кбайт (0%)
    Заголовок : SDH
    Язык : English
    Default : Нет
    Forced : Нет
    Меню
    00: 00: 00.000 : : 1. Circle Of Life/Nants\' Ingonyama
    00: 04: 50.499 : : 2. Life\'s Not Fair
    00: 10: 51.067 : : 3. Everything The Light Touches
    00: 17: 47.692 : : 4. I Just Can\'t Wait To Be King
    00: 23: 53.015 : : 5. Elephant Graveyard
    00: 30: 00.132 : : 6. Under The Stars
    00: 33: 05.066 : : 7. Be Prepared
    00: 37: 09.310 : : 8. Stampede
    00: 43: 42.912 : : 9. Scar Takes Over
    00: 50: 47.336 : : 10. Timon And Pumbaa
    00: 55: 02.716 : : 11. Hakuna Matata
    00: 59: 48.460 : : 12. Scar\'s Kingdom
    01: 06: 27.233 : : 13. Line Of Indifference
    01: 14: 32.093 : : 14. The Lion Sleeps Tonight
    01: 18: 26.410 : : 15. Can You Feel The Love Tonight
    01: 23: 07.900 : : 16. He Lives In You
    01: 28: 04.654 : : 17. Spirit
    01: 33: 10.877 : : 18. Simba Confronts Scar
    01: 37: 13.745 : : 19. Battle For Pride Rock
    01: 44: 39.190 : : 20. The Rightful King
    01: 47: 47.336 : : 21. End Credits/Never Too Late

    Скриншоты для ознакомления



    Все одноименные релизы в Клубе
    Время раздачи: c 5 до 19 мск (до появления первых 3-5 скачавших)

    Онлайн видео Король Лев



    Король Лев/The Lion King (2019) BDRip 3D [H.264/1080p] [Вертикальная анаморфная стереопара]
    Рейтинг →
     (голосов: 1, оценка 5/5, голосовать можно 1 раз )

    Другие торренты по теме:

  • Король Лев / The Lion King (1994) BDRip [1080p] 3D [Вертикальная анаморфная стереопара]
  • Король Лев / The Lion King (1994) BDRip [H.265 / 1080p]
  • Лев Лео, король джунглей / Leo the Lion: King of the Jungle (1994) DVDRip
  • Король Лев / The Lion King (1994) BDRip [H.264 / 1080p-LQ]
  • Король Лев / The Lion King (1994-2004) Blu-Ray [1080p] [Трилогия]
  • Король Лев / The Lion King (1994) UHD BDRemux [H.265 / 2160p] [4K, HDR, 10-bit]
  • Король Лев / The Lion King (1994) BDRip [H.264] [MP4|1280x720] [VO]
  • Король Лев / The Lion King (1994-2004) BDRemux [H.264 / 1080p] (Трилогия)


    • Комментарии (0):

      Информация

      Информация

        Посетители, находящиеся в группе Гости, не могут оставлять комментарии в данной новости.

        ↓ Меню




        ↓ Опрос

        Вы добавили сайт в закладки?
        Да
        Нет


        Популярное

        Футурама / Futurama (1999-2013) DVDRip (7 Сезонов, 140 серии) скачать через торрент бесплатно

        (скачиваний: 70)
        Малышарики (2015-2019) WEB-DL [H.264 / 1080p-LQ] (серии 1-154 из 208) [Обновляемая]

        (скачиваний: 60)
        Жила-была царевна (2015-2019) WEB-DLRip [H.264 / 720p-LQ] (сезон 1, серии 1-18 из 26) [Обновляемая]

        (скачиваний: 36)
        Металионы / Metalions (2018-2019) WEB-DLRip [H.264 / 720p-LQ] (сезон 1, серии 1-52 из 52) [Обновляемая]

        (скачиваний: 32)
        Три кота (2018) WEB-DLRip [H.264 / 720p-LQ] (сезон 3, серии 105-106 из 156)

        (скачиваний: 27)
        В гостях у сказки (сборник 56 фильмов) (1939-2009) DVDRip

        (скачиваний: 26)
        Рик и Морти / Rick and Morty (2013) BDRip [H.264 / 1080p] (Сезон 1, серии 1-11 из 11) Сыендук [EN Sub] скачать через торрент бесплатно

        (скачиваний: 19)
        Спокойной ночи, малыши! (2009, 2015) SATRip, TVRip (83 выпусков)

        (скачиваний: 19)
        Роботы-поезда / Robot Trains (2017) WEB-DL [H.264 / 720p-LQ] (1 сезон, 32 серий из 32)

        (скачиваний: 15)
        Fate / stay night Movie: Heavens Feel - II. Lost Butterfly / Судьба: Ночь схватки. Прикосновение Небес - II. Потерявшаяся бабочка [2019, MV] BDRip 1080p Rus

        (скачиваний: 12)