.
Авторизация | Регистрация
bitok.xyz
» » Эверест / Abominable (2019) WEB-DLRip [H.264] торрент скачать бесплатно


    Эверест / Abominable (2019) WEB-DLRip [H.264] торрент скачать бесплатно

    Дата: 30-11-2019, 05:00 | .torrent скачали: 0

    Эверест / Abominable (2019) WEB-DLRip [H.264]Производство: Китай, США/DreamWorks Animation, Pearl Studio
    Жанр: Мультфильм, фэнтези, комедия, приключения, семейный
    Режиссер: Джилл Калтон, Тодд Вилдерман

    Описание

    Путешествие на самую высокую точку мира? Что может быть круче! Так решает Лу, когда случайно находит огромное, но очень милое чудовище посреди шумного мегаполиса. Пусть их преследуют ученые из сверхсекретной лаборатории, зато её новый друг умеет смешить и творить чудеса. Лу уверена, что поможет дружелюбному йети вернуться домой — на Эверест.

    Возраст: 6+ (зрителям, достигшим 6 лет)
    Рейтинг MPAA: PG (рекомендуется присутствие родителей)
    Дата мировой премьеры: 7 сентября 2019
    Дата российской премьеры: 3 октября 2019, UPI
    Релиз от: OlLanDGroup
    Продолжительность: 01: 37: 13
    Качество видео: WEB-DLRip
    Перевод: Дублированный (iTunes)
    Субтитры: Русские (форсированные, хардсаб)
    Реклама: Отсутствует
    Видео: AVC/H.264, 720x388, ~1007 kbps
    Аудио: AAC, 2 ch, 64 kbps
    General
    Unique ID : 40211474118438606297820679603344680683 (0x1E4072BDF93643CEF61E16AF5F88A6EB)
    Complete name : C: UsersSkandarVideosAbominable.2019.WEB-DLRip(AVC).745Mb.OlLanDGroup.mkv
    Format : Matroska
    Format version : Version 4
    File size : 746 MiB
    Duration : 1 h 37 min
    Overall bit rate : 1 073 kb/s
    Movie name : Abominable.2019.WEB-DLRip(AVC).745Mb.OlLanDGroup#Skandar#
    Encoded date : UTC 2019-11-28 12: 46: 00
    Writing application : mkvmerge v31.0.0 (\'Dolores In A Shoestand\') 64-bit
    Writing library : libebml v1.3.6 + libmatroska v1.4.9
    Video
    ID : 1
    Format : AVC
    Format/Info : Advanced Video Codec
    Format profile : High@L4.1
    Format settings : CABAC/10 Ref Frames
    Format settings, CABAC : Yes
    Format settings, ReFrames : 10 frames
    Codec ID : V_MPEG4/ISO/AVC
    Duration : 1 h 37 min
    Bit rate : 1 007 kb/s
    Width : 720 pixels
    Height : 388 pixels
    Display aspect ratio : 1.85: 1
    Frame rate mode : Constant
    Frame rate : 23.976 (24000/1001) FPS
    Color space : YUV
    Chroma subsampling : 4: 2: 0
    Bit depth : 8 bits
    Scan type : Progressive
    Bits/(Pixel*Frame) : 0.150
    Stream size : 700 MiB (94%)
    Title : Abominable.2019.WEB-DLRip(AVC).745Mb.OlLanDGroup#Skandar#
    Writing library : x264 core 146 r2538 121396c
    Encoding settings : cabac=1/ref=10/deblock=1: -3: -3/analyse=0x3: 0x133/me=umh/subme=11/psy=1/psy_rd=0.97: 0.05/mixed_ref=1/me_range=48/chroma_me=1/trellis=2/8x8dct=1/cqm=0/deadzone=21, 11/fast_pskip=0/chroma_qp_offset=-3/threads=6/lookahead_threads=1/sliced_threads=0/nr=0/decimate=0/interlaced=0/bluray_compat=0/constrained_intra=0/bframes=11/b_pyramid=2/b_adapt=2/b_bias=0/direct=3/weightb=1/open_gop=0/weightp=2/keyint=240/keyint_min=23/scenecut=40/intra_refresh=0/rc_lookahead=40/rc=2pass/mbtree=0/bitrate=1007/ratetol=1.0/qcomp=0.60/qpmin=0/qpmax=69/qpstep=4/cplxblur=20.0/qblur=0.5/vbv_maxrate=50000/vbv_bufsize=62500/nal_hrd=none/filler=0/ip_ratio=1.40/pb_ratio=1.30/aq=1: 1.00
    Language : English
    Default : Yes
    Forced : No
    Audio
    ID : 2
    Format : AAC LC SBR
    Format/Info : Advanced Audio Codec Low Complexity with Spectral Band Replication
    Commercial name : HE-AAC
    Format settings : Explicit
    Codec ID : A_AAC-2
    Duration : 1 h 37 min
    Bit rate : 64.0 kb/s
    Channel(s) : 2 channels
    Channel layout : L R
    Sampling rate : 48.0 kHz
    Frame rate : 23.438 FPS (2048 SPF)
    Compression mode : Lossy
    Delay relative to video : 31 ms
    Stream size : 44.5 MiB (6%)
    Title : DUB iTunes
    Language : Russian
    Default : Yes
    Forced : No
    Menu
    00: 00: 00.000 : en: 1
    00: 04: 12.836 : en: 2
    00: 09: 11.885 : en: 3
    00: 13: 43.239 : en: 4
    00: 16: 14.598 : en: 5
    00: 21: 35.752 : en: 6
    00: 25: 03.459 : en: 7
    00: 29: 31.435 : en: 8
    00: 33: 58.452 : en: 9
    00: 36: 44.784 : en: 10
    00: 41: 54.009 : en: 11
    00: 46: 31.703 : en: 12
    00: 50: 43.329 : en: 13
    00: 56: 32.553 : en: 14
    01: 01: 41.528 : en: 15
    01: 06: 34.195 : en: 16
    01: 11: 45.422 : en: 17
    01: 15: 27.352 : en: 18
    01: 20: 42.542 : en: 19
    01: 26: 45.404 : en: 20

    Скриншоты для ознакомления



    Все одноименные релизы в Клубе
    Время раздачи: 24/7 (круглосуточно) (до появления первых 3-5 скачавших)

    Онлайн видео Эверест



    Эверест/Abominable (2019) WEB-DLRip [H.264]
    Рейтинг →
     (голосов: 1, оценка 4/5, голосовать можно 1 раз )

    Другие торренты по теме:

  • Эверест / Abominable (2019) UHD BDRemux [H.265 / 2160p] [4K, HDR, 10-bit]
  • Эверест / Abominable (2019) BDRip [H.264 / 1080p]
  • Эверест / Abominable (2019) WEB-DL [H.264 / 1080p-LQ]
  • Эверест / Abominable (2019) WEB-DL [1080p] ATV
  • Эверест / Abominable (2019) WEB-DL [H.264 / 720p]


    • Комментарии (0):

      Информация

      Информация

        Посетители, находящиеся в группе Гости, не могут оставлять комментарии в данной новости.

        ↓ Меню




        ↓ Опрос

        Вы добавили сайт в закладки?
        Да
        Нет


        Популярное