.
Авторизация | Регистрация
bitok.xyz
Торрент скачать бесплатно Мультфильмы торрент скачать Умка на ёлке (2019) WEB-DLRip торрент скачать бесплатно


    Умка на ёлке (2019) WEB-DLRip торрент скачать бесплатно

    Дата: 19-12-2019, 05:00 | .torrent скачали: 75

    Умка на ёлке (2019) WEB-DLRipПроизводство: Россия/Союзмультфильм
    Жанр: Детский, Компьютерная анимация
    Режиссер: Александр Воробьев

    Актеры
    Лариса Брохман, Андрей Тенетко...

    Описание

    Маленький белый медвежонок с большим сердцем Умка однажды отправился на поиски уехавшего друга. Покинув маму, Умка преодолел долгий путь, но не забыл о своем обещании вернуться домой. Студия Союзмультфильм представляет заключительную часть знаменитой зимней мульттрилогии о приключениях самого очаровательного медвежонка на всем Северном полюсе. Пятьдесят лет прошло с момента первого появления Умки в классическом мультфильме Владимира Попова и Владимира Пекаря по сценарию Юрия Яковлева. За это время искренний и милый герой полюбился нескольким поколениям советских и российских детей, но ничуть не постарел и пронес сквозь года свою доброту и тепло.
    Однажды у белого медвежонка Умки появился верный товарищ-мальчик. Когда взрослые увезли его куда-то далеко, Умка затосковал и решил разыскать друга. Смелый медвежонок совершил полет на вертолете, пробрался на полярную станцию и познакомился с другими человеческими медвежатами. А у людей сейчас – Новогодняя елка! Во время праздника особенно хочется обнять своих самых любимых и близких… Умка понимает, что его большое путешествие подходит к концу.
    Возраст: 0+ (для любой зрительской аудитории)
    Релиз от: Natasha77
    Продолжительность: 00: 07: 17
    Качество видео: WEB-DLRip
    Перевод: Не требуется (русский)
    Видео: XviD, 720x304, ~4200 Kbps
    Аудио: AC3, 2 ch, 192 Кбит/с Код: выделить всеОбщее
    Полное имя : E:Умка на ёлке.avi
    Формат : AVI
    Формат/Информация : Audio Video Interleave
    Размер файла : 234 Мбайт
    Продолжительность : 7 м. 17 с.
    Общий поток : 4489 Кбит/сек
    Видео
    Идентификатор : 0
    Формат : MPEG-4 Visual
    Профиль формата : Advanced Simple@L4
    Настройки формата : BVOP2
    Параметр BVOP формата : 2
    Параметр QPel формата : Нет
    Параметр GMC формата : Без точки перехода
    Параметр матрицы формата : Default (H.263)
    Идентификатор кодека : DIVX
    Идентификатор кодека/Информация : Project Mayo
    Идентификатор кодека/Подсказка : DivX 4
    Продолжительность : 7 м. 17 с.
    Битрейт : 4281 Кбит/сек
    Ширина : 720 пикселей
    Высота : 400 пикселей
    Соотношение сторон : 16:9
    Частота кадров : 25, 000 кадров/сек
    Цветовое пространство : YUV
    Субдискретизация насыщенности : 4:2:0
    Битовая глубина : 8 бит
    Тип развёртки : Прогрессивная
    Метод сжатия : С потерями
    Бит/(Пиксели*Кадры) : 0.595
    Размер потока : 223 Мбайт (95%)
    Библиотека кодирования : XviD 64
    Аудио
    Идентификатор : 1
    Формат : AC-3
    Формат/Информация : Audio Coding 3
    Коммерческое название : Dolby Digital
    Идентификатор кодека : 2000
    Продолжительность : 7 м. 16 с.
    Вид битрейта : Постоянный
    Битрейт : 192 Кбит/сек
    Каналы : 2 канала
    ChannelLayout : L R
    Частота : 48, 0 КГц
    Частота кадров : 31, 250 кадров/сек (1536 SPF)
    Битовая глубина : 16 бит
    Метод сжатия : С потерями
    Размер потока : 10, 0 Мбайт (4%)
    Выравнивание : Соединение по промежуткам
    Продолжительность промежутка : 32 мс. (0, 80 видеокадр)
    ServiceKind/String : Complete Main

    Скриншоты для ознакомления


    Умка на ёлке на NoNaMe Club

    Онлайн видео Умка на ёлке (2019) WEB



    Умка на ёлке (2019) WEB-DLRip торрент скачать бесплатно
    Рейтинг →
     (голосов: 1, оценка 3/5, голосовать можно 1 раз )

    Другие торренты по теме:

  • Умка на ёлке (2019) WEB-DL [H.264 / 720p-LQ]
  • Умка на ёлке (2019) WEB-DL [H.264 / 1080p-LQ]


    • Комментарии (0):

      Информация

      Информация

        Посетители, находящиеся в группе Гости, не могут оставлять комментарии в данной новости.

        ↓ Меню




        ↓ Опрос

        Вы добавили сайт в закладки?
        Да
        Нет


        Популярное

        М.Ю. Демидова | ЕГЭ-2020. Физика. 30 типовых вариантов (2020) [PDF]

        (скачиваний: 119)
        Малышарики (2015-2019) WEB-DL [H.264 / 1080p-LQ] (серии 1-154 из 208) [Обновляемая]

        (скачиваний: 111)
        Футурама / Futurama (1999-2013) DVDRip (7 Сезонов, 140 серии) скачать через торрент бесплатно

        (скачиваний: 58)
        Рик и Морти / Rick and Morty (2015) WEB-DL [H.264 / 1080p] (Сезон 2, серии 1-10 из 10) Сыендук [EN / RU Sub] скачать через торрент бесплатно

        (скачиваний: 45)
        Лунтик и его друзья (2013-2017) WEB-DLRip 7,8,9 сезон (390-488 серии)[Обновляемая]

        (скачиваний: 34)
        Жила-была царевна (2015-2019) WEB-DLRip [H.264 / 720p-LQ] (сезон 1, серии 1-18 из 26) [Обновляемая]

        (скачиваний: 34)
        Металионы / Metalions (2018-2019) WEB-DLRip [H.264 / 720p-LQ] (сезон 1, серии 1-52 из 52) [Обновляемая]

        (скачиваний: 32)
        Роботы-пожарные / Fire Robo (2016) WEB-DLRip [H.264 / 720p-LQ] (сезон 1, серии 1-26 из 26) [Обновляемая]

        (скачиваний: 27)
        Рик и Морти / Rick and Morty (2013-2015) BDRip [H.264] (сезон 1-2, серии 1-21 из 21) Сыендук

        (скачиваний: 25)
        Снежная Королева: Хранители Чудес (2019) WEB-DLRip [H.264 / 720p-LQ] (сезон 1, серия 1-4 из 26) [Обновляемая]

        (скачиваний: 25)