.
Авторизация | Регистрация
bitok.xyz
Торрент скачать бесплатно Мультфильмы торрент скачать Ши-Ра и непобедимые принцессы / She-Ra and the Princesses of Power (2019) WEBRip [H.264 / 720p-LQ] (сезон 4, серии 1-8 из 13) [MVO] NewStation торрент скачать бесплатно

    Ши-Ра и непобедимые принцессы / She-Ra and the Princesses of Power (2019) WEBRip [H.264 / 720p-LQ] (сезон 4, серии 1-8 из 13) [MVO] NewStation торрент скачать бесплатно

    Дата: 14-01-2020, 05:00 | .torrent скачали: 0

    Ши-Ра и непобедимые принцессы / She-Ra and the Princesses of Power (2019) WEBRip [H.264 / 720p-LQ] (сезон 4, серии 1-8 из 13) [MVO] NewStationПроизводство: США, DreamWorks Animation Television, Mattel Creations
    Жанр: Фантастика, фэнтези, боевик, приключения, семейный
    Режиссер: Джен Беннетт, Лайан Хьюз, Стефани Стайн

    Описание

    Действие происходит в далёкой вселенной, на планете Этерия. 16-ти летняя сирота Адора является одним из лучших солдат орды, возглавляемой тираном Хордаком. Благодаря своему таланту, Адора выступала главным кандидатом на пост капитана сил Орды. Её заданием стало уничтожение повстанцев великого восстания во главе с принцессами. Во время исполнения миссии, Адора находит волшебный меч, который превращает её в могущественного воина — Ши-Ру. Она встречает принцесс великого восстания, которые рассказывают ей пророчество, что однажды Этерию спасёт великая героиня.

    Релиз от: NewStation
    Продолжительность: ~00: 24: 00 серия
    Качество видео: WEBRip
    Перевод: Многоголосый любительский (NewStation)
    Субтитры: английские, испанские, норвежские, индонезийские, греческие, румынские, немецкие, тайские, японские, итальянские, португальские, китайские, финские, шведские, ивритские, арабские, голландские, датские, польские, турецкие, корейские, французские
    Видео: AVC/H.264, 1280x720, ~1540 Kbps
    Аудио 1: 48 kHz, AC-3, 6ch, 640 kbps - Русский (NewStation)
    Аудио 2: 48 kHz, AC-3, 6ch, 640 kbps - Английский01 The Coronation/Коронация
    02 The Valley of the Lost/Долина падших
    03 Flutterina/Трепетина
    04 Pulse/Импульс
    05 Protocol/Протокол
    06 Princess Scorpia/Принцесса Скорпия
    07 Mer-Mysteries/Рустерии
    08 Boys\' Night Out/Мальчишник
    Общее
    Уникальный идентификатор : 291119452197640678797574730967749980621 (0xDB03912968C24680C8731580EC3B71CD)
    Полное имя : F: NewStationShe-Ra.And.The.Princesses.Of.Power.S04.WEBRip.720p.NewStationShe-Ra.And.The.Princesses.Of.Power.S04E01.WEBRip.720p.NewStation.mkv
    Формат : Matroska
    Версия формата : Version 4/Version 2
    Размер файла : 481 Мбайт
    Продолжительность : 24 м. 8 с.
    Режим общего битрейта : Переменный
    Общий поток : 2787 Кбит/сек
    Дата кодирования : UTC 2019-11-25 19: 44: 45
    Программа кодирования : mkvmerge v28.1.0 (\'Morning Child\') 64-bit
    Библиотека кодирования : libebml v1.3.6 + libmatroska v1.4.9
    Видео
    Идентификатор : 1
    Формат : AVC
    Формат/Информация : Advanced Video Codec
    Профиль формата : Main@L3.1
    Настройки формата : CABAC/3 Ref Frames
    Параметр CABAC формата : Да
    Параметр RefFrames формата : 3 кадра
    Идентификатор кодека : V_MPEG4/ISO/AVC
    Продолжительность : 24 м. 8 с.
    Вид битрейта : Переменный
    Битрейт : 1540 Кбит/сек
    Максимальный битрейт : 2310 Кбит/сек
    Ширина : 1280 пикселей
    Высота : 720 пикселей
    Соотношение сторон : 16: 9
    Режим частоты кадров : Постоянный
    Частота кадров : 23, 976 (24000/1001) кадра/сек
    Цветовое пространство : YUV
    Субдискретизация насыщенности : 4: 2: 0
    Битовая глубина : 8 бит
    Тип развёртки : Прогрессивная
    Бит/(Пиксели*Кадры) : 0.070
    Размер потока : 259 Мбайт (54%)
    Библиотека кодирования : x264 core 148 r2715 7e75228
    Настройки программы : cabac=1/ref=3/deblock=1: 0: 0/analyse=0x1: 0x111/me=umh/subme=10/psy=1/psy_rd=1.00: 0.00/mixed_ref=1/me_range=24/chroma_me=1/trellis=2/8x8dct=0/cqm=0/deadzone=21, 11/fast_pskip=1/chroma_qp_offset=-2/threads=8/lookahead_threads=1/sliced_threads=0/nr=0/decimate=1/interlaced=0/bluray_compat=0/stitchable=1/constrained_intra=0/bframes=2/b_pyramid=0/b_adapt=2/b_bias=0/direct=3/weightb=1/open_gop=0/weightp=2/keyint=48/keyint_min=25/scenecut=0/intra_refresh=0/rc_lookahead=48/rc=2pass/mbtree=1/bitrate=1540/ratetol=1.0/qcomp=0.50/qpmin=6/qpmax=51/qpstep=4/cplxblur=20.0/qblur=0.5/vbv_maxrate=2310/vbv_bufsize=3080/nal_hrd=vbr/filler=0/ip_ratio=1.40/aq=1: 1.00
    Default : Да
    Forced : Нет
    Аудио #1
    Идентификатор : 2
    Формат : AC-3
    Формат/Информация : Audio Coding 3
    Идентификатор кодека : A_AC3
    Продолжительность : 24 м. 8 с.
    Вид битрейта : Постоянный
    Битрейт : 640 Кбит/сек
    Каналы : 6 каналов
    Расположение каналов : Front: L C R, Side: L R, LFE
    Частота : 48, 0 КГц
    Частота кадров : 31, 250 кадров/сек (1536 SPF)
    Битовая глубина : 16 бит
    Метод сжатия : С потерями
    Размер потока : 111 Мбайт (23%)
    Заголовок : NewStation
    Язык : Russian
    ServiceKind/String : Complete Main
    Default : Да
    Forced : Нет
    Аудио #2
    Идентификатор : 3
    Формат : AC-3
    Формат/Информация : Audio Coding 3
    Идентификатор кодека : A_AC3
    Продолжительность : 24 м. 8 с.
    Вид битрейта : Постоянный
    Битрейт : 640 Кбит/сек
    Каналы : 6 каналов
    Расположение каналов : Front: L C R, Side: L R, LFE
    Частота : 48, 0 КГц
    Частота кадров : 31, 250 кадров/сек (1536 SPF)
    Битовая глубина : 16 бит
    Метод сжатия : С потерями
    Размер потока : 111 Мбайт (23%)
    Заголовок : Original
    Язык : English
    ServiceKind/String : Complete Main
    Default : Нет
    Forced : Нет
    Текст #1
    Идентификатор : 4
    Формат : UTF-8
    Идентификатор кодека : S_TEXT/UTF8
    Идентификатор кодека/Информация : UTF-8 Plain Text
    Продолжительность : 22 м. 11 с.
    Битрейт : 74 бит/сек
    ElementCount : 330
    Размер потока : 12, 2 Кбайт (0%)
    Заголовок : SDH
    Язык : English
    Default : Нет
    Forced : Нет
    Текст #2
    Идентификатор : 5
    Формат : UTF-8
    Идентификатор кодека : S_TEXT/UTF8
    Идентификатор кодека/Информация : UTF-8 Plain Text
    Продолжительность : 22 м. 32 с.
    Битрейт : 115 бит/сек
    ElementCount : 288
    Размер потока : 19, 1 Кбайт (0%)
    Язык : Arabic
    Default : Нет
    Forced : Нет
    Текст #3
    Идентификатор : 6
    Формат : UTF-8
    Идентификатор кодека : S_TEXT/UTF8
    Идентификатор кодека/Информация : UTF-8 Plain Text
    Продолжительность : 22 м. 32 с.
    Битрейт : 52 бит/сек
    ElementCount : 280
    Размер потока : 8, 62 Кбайт (0%)
    Язык : Danish
    Default : Нет
    Forced : Нет
    Текст #4
    Идентификатор : 7
    Формат : UTF-8
    Идентификатор кодека : S_TEXT/UTF8
    Идентификатор кодека/Информация : UTF-8 Plain Text
    Продолжительность : 22 м. 32 с.
    Битрейт : 59 бит/сек
    ElementCount : 277
    Размер потока : 9, 76 Кбайт (0%)
    Язык : German
    Default : Нет
    Forced : Нет
    Текст #5
    Идентификатор : 8
    Формат : UTF-8
    Идентификатор кодека : S_TEXT/UTF8
    Идентификатор кодека/Информация : UTF-8 Plain Text
    Продолжительность : 22 м. 32 с.
    Битрейт : 95 бит/сек
    ElementCount : 282
    Размер потока : 15, 7 Кбайт (0%)
    Язык : Greek
    Default : Нет
    Forced : Нет
    Текст #6
    Идентификатор : 9
    Формат : UTF-8
    Идентификатор кодека : S_TEXT/UTF8
    Идентификатор кодека/Информация : UTF-8 Plain Text
    Продолжительность : 22 м. 32 с.
    Битрейт : 58 бит/сек
    ElementCount : 288
    Размер потока : 9, 68 Кбайт (0%)
    Заголовок : Latin American
    Язык : Spanish
    Default : Нет
    Forced : Нет
    Текст #7
    Идентификатор : 10
    Формат : UTF-8
    Идентификатор кодека : S_TEXT/UTF8
    Идентификатор кодека/Информация : UTF-8 Plain Text
    Продолжительность : 22 м. 32 с.
    Битрейт : 58 бит/сек
    ElementCount : 288
    Размер потока : 9, 58 Кбайт (0%)
    Заголовок : European
    Язык : Spanish
    Default : Нет
    Forced : Нет
    Текст #8
    Идентификатор : 11
    Формат : UTF-8
    Идентификатор кодека : S_TEXT/UTF8
    Идентификатор кодека/Информация : UTF-8 Plain Text
    Продолжительность : 22 м. 32 с.
    Битрейт : 56 бит/сек
    ElementCount : 211
    Размер потока : 9, 35 Кбайт (0%)
    Язык : Finnish
    Default : Нет
    Forced : Нет
    Текст #9
    Идентификатор : 12
    Формат : UTF-8
    Идентификатор кодека : S_TEXT/UTF8
    Идентификатор кодека/Информация : UTF-8 Plain Text
    Продолжительность : 22 м. 32 с.
    Битрейт : 54 бит/сек
    ElementCount : 269
    Размер потока : 9, 00 Кбайт (0%)
    Язык : French
    Default : Нет
    Forced : Нет
    Текст #10
    Идентификатор : 13
    Формат : UTF-8
    Идентификатор кодека : S_TEXT/UTF8
    Идентификатор кодека/Информация : UTF-8 Plain Text
    Продолжительность : 22 м. 32 с.
    Битрейт : 98 бит/сек
    ElementCount : 287
    Размер потока : 16, 3 Кбайт (0%)
    Язык : Hebrew
    Default : Нет
    Forced : Нет
    Текст #11
    Идентификатор : 14
    Формат : UTF-8
    Идентификатор кодека : S_TEXT/UTF8
    Идентификатор кодека/Информация : UTF-8 Plain Text
    Продолжительность : 22 м. 32 с.
    Битрейт : 56 бит/сек
    ElementCount : 289
    Размер потока : 9, 38 Кбайт (0%)
    Язык : Indonesian
    Default : Нет
    Forced : Нет
    Текст #12
    Идентификатор : 15
    Формат : UTF-8
    Идентификатор кодека : S_TEXT/UTF8
    Идентификатор кодека/Информация : UTF-8 Plain Text
    Продолжительность : 22 м. 32 с.
    Битрейт : 55 бит/сек
    ElementCount : 288
    Размер потока : 9, 12 Кбайт (0%)
    Язык : Italian
    Default : Нет
    Forced : Нет
    Текст #13
    Идентификатор : 16
    Формат : UTF-8
    Идентификатор кодека : S_TEXT/UTF8
    Идентификатор кодека/Информация : UTF-8 Plain Text
    Продолжительность : 22 м. 33 с.
    Битрейт : 81 бит/сек
    ElementCount : 327
    Размер потока : 13, 4 Кбайт (0%)
    Язык : Japanese
    Default : Нет
    Forced : Нет
    Текст #14
    Идентификатор : 17
    Формат : UTF-8
    Идентификатор кодека : S_TEXT/UTF8
    Идентификатор кодека/Информация : UTF-8 Plain Text
    Продолжительность : 22 м. 32 с.
    Битрейт : 84 бит/сек
    ElementCount : 288
    Размер потока : 13, 9 Кбайт (0%)
    Язык : Korean
    Default : Нет
    Forced : Нет
    Текст #15
    Идентификатор : 18
    Формат : UTF-8
    Идентификатор кодека : S_TEXT/UTF8
    Идентификатор кодека/Информация : UTF-8 Plain Text
    Продолжительность : 22 м. 32 с.
    Битрейт : 54 бит/сек
    ElementCount : 225
    Размер потока : 8, 94 Кбайт (0%)
    Язык : Norwegian Bokmal
    Default : Нет
    Forced : Нет
    Текст #16
    Идентификатор : 19
    Формат : UTF-8
    Идентификатор кодека : S_TEXT/UTF8
    Идентификатор кодека/Информация : UTF-8 Plain Text
    Продолжительность : 22 м. 32 с.
    Битрейт : 55 бит/сек
    ElementCount : 238
    Размер потока : 9, 20 Кбайт (0%)
    Язык : Dutch
    Default : Нет
    Forced : Нет
    Текст #17
    Идентификатор : 20
    Формат : UTF-8
    Идентификатор кодека : S_TEXT/UTF8
    Идентификатор кодека/Информация : UTF-8 Plain Text
    Продолжительность : 22 м. 32 с.
    Битрейт : 58 бит/сек
    ElementCount : 288
    Размер потока : 9, 63 Кбайт (0%)
    Язык : Polish
    Default : Нет
    Forced : Нет
    Текст #18
    Идентификатор : 21
    Формат : UTF-8
    Идентификатор кодека : S_TEXT/UTF8
    Идентификатор кодека/Информация : UTF-8 Plain Text
    Продолжительность : 22 м. 32 с.
    Битрейт : 53 бит/сек
    ElementCount : 288
    Размер потока : 8, 90 Кбайт (0%)
    Заголовок : European
    Язык : Portuguese
    Default : Нет
    Forced : Нет
    Текст #19
    Идентификатор : 22
    Формат : UTF-8
    Идентификатор кодека : S_TEXT/UTF8
    Идентификатор кодека/Информация : UTF-8 Plain Text
    Продолжительность : 22 м. 32 с.
    Битрейт : 58 бит/сек
    ElementCount : 288
    Размер потока : 9, 65 Кбайт (0%)
    Заголовок : Brazilian
    Язык : Portuguese
    Default : Нет
    Forced : Нет
    Текст #20
    Идентификатор : 23
    Формат : UTF-8
    Идентификатор кодека : S_TEXT/UTF8
    Идентификатор кодека/Информация : UTF-8 Plain Text
    Продолжительность : 22 м. 32 с.
    Битрейт : 65 бит/сек
    ElementCount : 287
    Размер потока : 10, 9 Кбайт (0%)
    Язык : Romanian
    Default : Нет
    Forced : Нет
    Текст #21
    Идентификатор : 24
    Формат : UTF-8
    Идентификатор кодека : S_TEXT/UTF8
    Идентификатор кодека/Информация : UTF-8 Plain Text
    Продолжительность : 22 м. 32 с.
    Битрейт : 58 бит/сек
    ElementCount : 253
    Размер потока : 9, 60 Кбайт (0%)
    Язык : Swedish
    Default : Нет
    Forced : Нет
    Текст #22
    Идентификатор : 25
    Формат : UTF-8
    Идентификатор кодека : S_TEXT/UTF8
    Идентификатор кодека/Информация : UTF-8 Plain Text
    Продолжительность : 22 м. 32 с.
    Битрейт : 171 бит/сек
    ElementCount : 288
    Размер потока : 28, 2 Кбайт (0%)
    Язык : Thai
    Default : Нет
    Forced : Нет
    Текст #23
    Идентификатор : 26
    Формат : UTF-8
    Идентификатор кодека : S_TEXT/UTF8
    Идентификатор кодека/Информация : UTF-8 Plain Text
    Продолжительность : 22 м. 32 с.
    Битрейт : 61 бит/сек
    ElementCount : 288
    Размер потока : 10, 2 Кбайт (0%)
    Язык : Turkish
    Default : Нет
    Forced : Нет
    Текст #24
    Идентификатор : 27
    Формат : UTF-8
    Идентификатор кодека : S_TEXT/UTF8
    Идентификатор кодека/Информация : UTF-8 Plain Text
    Продолжительность : 22 м. 32 с.
    Битрейт : 70 бит/сек
    ElementCount : 288
    Размер потока : 11, 7 Кбайт (0%)
    Заголовок : Simplified
    Язык : Chinese
    Default : Нет
    Forced : Нет
    Текст #25
    Идентификатор : 28
    Формат : UTF-8
    Идентификатор кодека : S_TEXT/UTF8
    Идентификатор кодека/Информация : UTF-8 Plain Text
    Продолжительность : 22 м. 32 с.
    Битрейт : 66 бит/сек
    ElementCount : 288
    Размер потока : 11, 0 Кбайт (0%)
    Заголовок : Traditional
    Язык : Chinese
    Default : Нет
    Forced : Нет

    Скриншоты для ознакомления



    Все одноименные релизы в Клубе
    Время раздачи: 24/7 (круглосуточно) (до появления первых 3-5 скачавших)

    Онлайн видео Ши-Ра и непобедимые принцессы



    Ши-Ра и непобедимые принцессы / She-Ra and the Princesses of Power (2019) WEBRip [H.264 / 720p-LQ] (сезон 4, серии 1-8 из 13) [MVO] NewStation торрент скачать бесплатно
    Рейтинг →
     (голосов: 1, оценка 4/5, голосовать можно 1 раз )

    Другие торренты по теме:

  • Ши-Ра и непобедимые принцессы / She-Ra and the Princesses of Power (2018) WEBRip [H.264 / 1080p-LQ] (сезон 1, серии 1-8 из 13) [MVO] NewStation
  • Ши-Ра и непобедимые принцессы / She-Ra and the Princesses of Power (2018) WEBRip [H.264 / 720p-LQ] (сезон 1, серии 1-8 из 13) [MVO] NewStation
  • Ши-Ра и непобедимые принцессы / She-Ra and the Princesses of Power (2018) WEBRip (сезон 1, серии 1-8 из 13) [MVO] NewStation
  • Ши-Ра и непобедимые принцессы / She-Ra and the Princesses of Power (2019) WEBRip [H.264 / 1080p-LQ] (сезон 2, серии 1-4 из 7) [MVO] NewStation
  • Ши-Ра и непобедимые принцессы / She-Ra and the Princesses of Power (2019) WEBRip [H.264 / 720p-LQ] (сезон 2, серии 1-4 из 7) [MVO] NewStation
  • Ши-Ра и непобедимые принцессы / She-Ra and the Princesses of Power (2019) WEBRip (сезон 2, серии 1-7 из 7) [MVO] NewStation
  • Ши-Ра и непобедимые принцессы / She-Ra and the Princesses of Power (2019) WEBRip [H.264 / 1080p-LQ] (сезон 3, серии 1-2 из 6) [MVO] NewStation
  • Ши-Ра и непобедимые принцессы / She-Ra and the Princesses of Power (2019) WEBRip [H.264 / 720p-LQ] (сезон 3, серии 1-2 из 6) [MVO] NewStation


    • Комментарии (0):

      Информация

      Информация

        Посетители, находящиеся в группе Гости, не могут оставлять комментарии в данной новости.

        ↓ Меню




        ↓ Опрос

        Вы добавили сайт в закладки?
        Да
        Нет


        Популярное

        М.Ю. Демидова | ЕГЭ-2020. Физика. 30 типовых вариантов (2020) [PDF]

        (скачиваний: 119)
        Малышарики (2015-2019) WEB-DL [H.264 / 1080p-LQ] (серии 1-154 из 208) [Обновляемая]

        (скачиваний: 111)
        Футурама / Futurama (1999-2013) DVDRip (7 Сезонов, 140 серии) скачать через торрент бесплатно

        (скачиваний: 58)
        Рик и Морти / Rick and Morty (2015) WEB-DL [H.264 / 1080p] (Сезон 2, серии 1-10 из 10) Сыендук [EN / RU Sub] скачать через торрент бесплатно

        (скачиваний: 45)
        Жила-была царевна (2015-2019) WEB-DLRip [H.264 / 720p-LQ] (сезон 1, серии 1-18 из 26) [Обновляемая]

        (скачиваний: 34)
        Лунтик и его друзья (2013-2017) WEB-DLRip 7,8,9 сезон (390-488 серии)[Обновляемая]

        (скачиваний: 34)
        Металионы / Metalions (2018-2019) WEB-DLRip [H.264 / 720p-LQ] (сезон 1, серии 1-52 из 52) [Обновляемая]

        (скачиваний: 32)
        Роботы-пожарные / Fire Robo (2016) WEB-DLRip [H.264 / 720p-LQ] (сезон 1, серии 1-26 из 26) [Обновляемая]

        (скачиваний: 27)
        Рик и Морти / Rick and Morty (2013-2015) BDRip [H.264] (сезон 1-2, серии 1-21 из 21) Сыендук

        (скачиваний: 25)
        Снежная Королева: Хранители Чудес (2019) WEB-DLRip [H.264 / 720p-LQ] (сезон 1, серия 1-4 из 26) [Обновляемая]

        (скачиваний: 25)