.
Авторизация | Регистрация
bitok.xyz
Торрент скачать бесплатно Мультфильмы торрент скачать Щенок в моем кармане / Puppy In My Pocket (2010) WEBRip [H.264 / 1080p-LQ] (сезон 1, эпизоды 52 из 52) [UKR, EN] торрент скачать бесплатно


    Щенок в моем кармане / Puppy In My Pocket (2010) WEBRip [H.264 / 1080p-LQ] (сезон 1, эпизоды 52 из 52) [UKR, EN] торрент скачать бесплатно

    Дата: 14-01-2020, 05:00 | .torrent скачали: 1

    Щенок в моем кармане / Puppy In My Pocket (2010) WEBRip [H.264 / 1080p-LQ] (сезон 1, эпизоды 52 из 52) [UKR, EN]Производство: Италия, Giochi Preziosi, MEG Entertainment Group, Mondo TV
    Жанр: Детский, Развивающий, Приключения
    Режиссер: Орландо Корради

    Описание

    Удивительный итальянский мультфильм, от авторов Друзья ангелов. Сюжет сериала прост и понятен для восприятия даже самых маленьких зрителей: вечная борьба добра и зла. Действие происходит в волшебной стране Покетвилль, где мирно уживаются щенки и котята, и все они ждут своей очереди, чтобы стать домашним любимцем человека. Встретиться животным с детьми помогает принцесса Эми. Однако ее злая сестра Има очень не любила принцессу и с помощью магии отправила Эми на Землю. Для поддержания баланса миров в Покетвилль была отправлена земная девочка Кейт. Она заняла место принцессы, и на ее плечи легли все обязанности Эми. С помощью щенка Мэджик, Кейт предстоит помешать властной Име, желающей самой занять место принцессы.

    Возраст: 0+ (для любой зрительской аудитории)
    Релиз от: sergiyko
    Продолжительность: 00: 14: 00
    Качество видео: WEBRip
    Перевод: Отсутствует
    Язык озвучки Украинский, английский
    Субтитры: отсутствуют
    Видео: AVC/H.264, 1920 х 1080, ~2000 kbps
    Аудио 1: MP2, 2 ch, 192 kbps - украинский
    Аудио 2: AAC, 2 ch, 128 kbps - английский
    General
    Unique ID : 50585776475283345587545385297816731174 (0x260E7756BEDF6A3EE5297B6339023E26)
    Complete name : D: DocumentsTorrentsMULTSER_2Puppy In My Pocket 1080p WEBRipS01E14.Patience.Part 2.1080p.WEBRip.mkv
    Format : Matroska
    Format version : Version 4
    File size : 199 MiB
    Duration : 13 min 59 s
    Overall bit rate : 1 988 kb/s
    Movie name : rip by sergiyko
    Encoded date : UTC 2019-12-30 11: 00: 41
    Writing application : mkvmerge v41.0.0 (\'Smarra\') 64-bit
    Writing library : libebml v1.3.9 + libmatroska v1.5.2
    Video
    ID : 1
    Format : AVC
    Format/Info : Advanced Video Codec
    Format profile : High@L4
    Format settings : CABAC/2 Ref Frames
    Format settings, CABAC : Yes
    Format settings, Reference : 2 frames
    Codec ID : V_MPEG4/ISO/AVC
    Duration : 13 min 59 s
    Bit rate : 1 700 kb/s
    Width : 1 920 pixels
    Height : 1 080 pixels
    Display aspect ratio : 16: 9
    Frame rate mode : Constant
    Frame rate : 25.000 FPS
    Color space : YUV
    Chroma subsampling : 4: 2: 0
    Bit depth : 8 bits
    Scan type : Progressive
    Bits/(Pixel*Frame) : 0.033
    Stream size : 170 MiB (86%)
    Language : English
    Default : Yes
    Forced : No
    Color range : Limited
    Color primaries : BT.709
    Transfer characteristics : BT.709
    Matrix coefficients : BT.709
    Audio #1
    ID : 2
    Format : MPEG Audio
    Format version : Version 1
    Format profile : Layer 2
    Codec ID : A_MPEG/L2
    Codec ID/Hint : MP2
    Duration : 13 min 59 s
    Bit rate mode : Constant
    Bit rate : 160 kb/s
    Channel(s) : 2 channels
    Sampling rate : 48.0 kHz
    Frame rate : 41.667 FPS (1152 SPF)
    Compression mode : Lossy
    Delay relative to video : 12 ms
    Stream size : 16.0 MiB (8%)
    Language : Ukrainian
    Default : Yes
    Forced : Yes
    Audio #2
    ID : 3
    Format : AAC LC
    Format/Info : Advanced Audio Codec Low Complexity
    Codec ID : A_AAC-2
    Duration : 13 min 59 s
    Bit rate : 126 kb/s
    Channel(s) : 2 channels
    Channel layout : L R
    Sampling rate : 44.1 kHz
    Frame rate : 43.066 FPS (1024 SPF)
    Compression mode : Lossy
    Stream size : 12.6 MiB (6%)
    Default : No
    Forced : No


    Онлайн видео Щенок в моем кармане



    Щенок в моем кармане / Puppy In My Pocket (2010) WEBRip [H.264 / 1080p-LQ] (сезон 1, эпизоды 52 из 52) [UKR, EN] торрент скачать бесплатно
    Рейтинг →
     (голосов: 1, оценка 3/5, голосовать можно 1 раз )

    Другие торренты по теме:

  • Как щенок учился плавать (1984) DVDRip
  • Щенок-талисман / Duffy - The Mascot (1934) DVDRip [H.264] [hand made colored] [EN]
  • Приключения Бэйли: Потерянный щенок / Adventures of Bailey: The Lost Puppy (2010) HDTVRip [H.264 / 1080p-LQ] скачать через торрент бесплатно
  • Александр Бородыня | Цепной щенок [сборник] (1998) [FB2]
  • Юрий Кушак | Ищет клоуна щенок (2014) [FB2]
  • Е. Жуковская | Как щенок был мамой (1978) [MP3]


    • Комментарии (0):

      Информация

      Информация

        Посетители, находящиеся в группе Гости, не могут оставлять комментарии в данной новости.

        ↓ Меню




        ↓ Опрос

        Вы добавили сайт в закладки?
        Да
        Нет


        Популярное

        М.Ю. Демидова | ЕГЭ-2020. Физика. 30 типовых вариантов (2020) [PDF]

        (скачиваний: 119)
        Малышарики (2015-2019) WEB-DL [H.264 / 1080p-LQ] (серии 1-154 из 208) [Обновляемая]

        (скачиваний: 111)
        Футурама / Futurama (1999-2013) DVDRip (7 Сезонов, 140 серии) скачать через торрент бесплатно

        (скачиваний: 58)
        Рик и Морти / Rick and Morty (2015) WEB-DL [H.264 / 1080p] (Сезон 2, серии 1-10 из 10) Сыендук [EN / RU Sub] скачать через торрент бесплатно

        (скачиваний: 45)
        Жила-была царевна (2015-2019) WEB-DLRip [H.264 / 720p-LQ] (сезон 1, серии 1-18 из 26) [Обновляемая]

        (скачиваний: 34)
        Лунтик и его друзья (2013-2017) WEB-DLRip 7,8,9 сезон (390-488 серии)[Обновляемая]

        (скачиваний: 34)
        Металионы / Metalions (2018-2019) WEB-DLRip [H.264 / 720p-LQ] (сезон 1, серии 1-52 из 52) [Обновляемая]

        (скачиваний: 32)
        Роботы-пожарные / Fire Robo (2016) WEB-DLRip [H.264 / 720p-LQ] (сезон 1, серии 1-26 из 26) [Обновляемая]

        (скачиваний: 27)
        Снежная Королева: Хранители Чудес (2019) WEB-DLRip [H.264 / 720p-LQ] (сезон 1, серия 1-4 из 26) [Обновляемая]

        (скачиваний: 25)
        Рик и Морти / Rick and Morty (2013-2015) BDRip [H.264] (сезон 1-2, серии 1-21 из 21) Сыендук

        (скачиваний: 25)